<?xml version="1.0" standalone="no"?>
<!DOCTYPE svg PUBLIC "-//W3C//DTD SVG 1.1//EN" "http://www.w3.org/Graphics/SVG/1.1/DTD/svg11.dtd" >
<svg xmlns="http://www.w3.org/2000/svg">
<metadata>Generated by IcoMoon</metadata>
<defs>
<font id="icomoon" horiz-adv-x="1024">
<font-face units-per-em="1024" ascent="960" descent="-64" />
<missing-glyph horiz-adv-x="1024" />
<glyph unicode="&#x20;" horiz-adv-x="512" d="" />
<glyph unicode="&#xe900;" glyph-name="burger" horiz-adv-x="1247" d="M-22.261 381.217h1284.605v133.565h-1284.605zM-22.261 826.435h1284.605v133.565h-1284.605zM-22.261-64h1284.605v133.565h-1284.605z" />
<glyph unicode="&#xe901;" glyph-name="calender" d="M73.143-64v1024h877.714v-1024h-877.714zM219.429 82.286h585.143v585.143h-585.143v-585.143zM553.94 556.288h-83.822v-142.848h-142.921v-83.895h142.921v-142.775h83.822v142.775h142.848v83.895h-142.848z" />
<glyph unicode="&#xe902;" glyph-name="minus" d="M1024 533.333h-1024v-170.667h1024z" />
<glyph unicode="&#xe903;" glyph-name="plus" d="M597.333 362.667h426.667v170.667h-426.667v426.667h-170.667v-426.667h-426.667v-170.667h426.667v-426.667h170.667v426.667z" />
<glyph unicode="&#xe904;" glyph-name="cross" d="M638.892 448.887l383.335 383.335-127.778 127.778-383.335-383.335-383.335 383.335-127.778-127.778 383.335-383.335-383.335-383.335 127.778-127.778 383.335 383.335 383.335-383.335 127.778 127.778-383.335 383.335z" />
<glyph unicode="&#xe905;" glyph-name="pfeil_unten" d="M584.953 215.641l185.837 185.837 103.44-103.44-362.039-362.039-362.039 362.039 103.44 103.44 185.076-185.076v743.597h146.286v-744.359z" />
<glyph unicode="&#xe906;" glyph-name="pfeil_rechts-oben" d="M804.841 564.527v-262.813h146.286v512h-512v-146.286h261.736l-529.367-529.367 103.44-103.44 529.905 529.905z" />
<glyph unicode="&#xe907;" glyph-name="facebook" d="M739.674 403.067l23.481 182.036h-180.28v116.236c0 52.705 14.703 88.622 90.268 88.622l96.339 0.037v162.833c-16.642 2.195-73.809 7.169-140.449 7.169-138.986 0-234.082-84.855-234.082-240.666v-134.232h-157.237v-182.036h157.237v-467.067h187.924v467.067h156.799z" />
<glyph unicode="&#xe908;" glyph-name="instagram" d="M240.197 813.714h543.642c51.669 0 93.875-41.279 93.875-91.735v-531.281c0-50.456-42.206-91.7-93.875-91.7h-543.642c-51.633 0-93.911 41.244-93.911 91.7v531.281c0 50.456 42.278 91.735 93.911 91.735v0zM679.133 734.321c-18.135 0-32.923-14.486-32.923-32.207v-77.002c0-17.721 14.788-32.172 32.923-32.172h82.649c18.135 0 32.959 14.451 32.959 32.172v77.002c0 17.721-14.824 32.207-32.959 32.207h-82.649zM795.029 511.471h-64.335c6.081-19.479 9.391-40.013 9.391-61.356 0-118.879-101.827-215.255-227.402-215.255-125.539 0-227.366 96.376-227.366 215.255 0 21.343 3.346 41.877 9.427 61.356h-67.141v-301.962c0-15.611 13.061-28.34 29.037-28.34h509.352c16.012 0 29.037 12.728 29.037 28.34v301.962zM512.684 596.983c-81.102 0-146.876-62.235-146.876-139.096 0-76.791 65.774-139.096 146.876-139.096 81.138 0 146.912 62.305 146.912 139.096 0 76.862-65.774 139.096-146.912 139.096v0z" />
<glyph unicode="&#xe909;" glyph-name="chevron_akk_down" d="M512.014 172.37l-512.014 511.982 67.648 67.648 444.366-444.366 444.366 444.366 67.648-67.648z" />
<glyph unicode="&#xe90a;" glyph-name="chevron_akk_up" d="M512.014 736.013l-512.014-511.982 67.648-67.648 444.366 444.366 444.366-444.366 67.648 67.648z" />
<glyph unicode="&#xe90b;" glyph-name="chevron_kl_li" d="M717.155 959.995l-507.701-512.021 507.701-511.975 97.363 98.182-410.338 413.792 410.338 413.838z" />
<glyph unicode="&#xe90c;" glyph-name="bullet" d="M1024 448c0-282.77-229.23-512-512-512s-512 229.23-512 512c0 282.77 229.23 512 512 512s512-229.23 512-512z" />
<glyph unicode="&#xe90d;" glyph-name="twitter" d="M950.875 729.955c-32.286-14.219-67.036-23.809-103.427-28.142 37.176 22.143 65.766 57.098 79.166 98.83-34.749-20.477-73.269-35.362-114.289-43.361-32.883 34.733-79.689 56.432-131.496 56.432-99.434 0-180.055-80.019-180.055-178.663 0-13.997 1.605-27.623 4.628-40.695-149.636 7.443-282.288 78.538-371.159 186.699-15.453-26.438-24.336-57.098-24.336-89.869 0-61.949 31.763-116.677 80.062-148.67-29.487 0.889-57.256 8.998-81.555 22.328v-2.222c0-86.536 62.109-158.779 144.447-175.183-15.079-4.073-31.054-6.295-47.44-6.295-11.571 0-22.917 1.148-33.891 3.259 22.917-70.984 89.43-122.639 168.186-124.12-61.586-47.878-139.222-76.464-223.651-76.464-14.482 0-28.815 0.889-42.924 2.518 79.689-50.655 174.345-80.241 276.092-80.241 331.221 0 512.322 272.161 512.322 508.256 0 7.739-0.187 15.441-0.485 23.143 35.123 25.142 65.617 56.617 89.804 92.461z" />
<glyph unicode="&#xe90e;" glyph-name="pfeil_rechts" d="M746.057 521.143l-190.171 182.857 102.4 102.4 307.2-307.2 58.514-51.2-358.4-358.4-102.4 102.4 182.857 182.857h-746.057v146.286h746.057z" />
<glyph unicode="&#xe90f;" glyph-name="chevron_kl_re" d="M306.845 959.995l507.701-512.021-507.701-511.975-97.363 98.182 410.338 413.792-410.338 413.838z" />
<glyph unicode="&#xe910;" glyph-name="chevron_slider_li" d="M721.608 959.995l81.285-83.147-419.232-428.838 419.232-428.862-81.285-83.147-500.517 512.009z" />
<glyph unicode="&#xe911;" glyph-name="chevron_slider_re" d="M302.376 960l-81.285-83.147 419.232-428.838-419.232-428.862 81.285-83.147 500.517 512.009z" />
<glyph unicode="&#xe912;" glyph-name="Forward" d="M675.151 789.293l-102.424-100.221 174.852-171.158-136.93 0.267-277.071 271.112-102.492-100.221 174.373-170.69-405.459 0.468v-141.807l68.328 0.201v-0.201l337.131 0.401-174.373-170.556 102.492-100.221 277.071 271.179 136.93 0.201-174.852-171.158 102.356-100.221h0.137l348.815 341.246z" />
<glyph unicode="&#xe913;" glyph-name="pfeil_oben" d="M439.047 680.359l-185.837-185.837-103.44 103.44 362.039 362.039 362.039-362.039-103.44-103.44-185.076 185.076v-743.597h-146.286v744.359z" />
<glyph unicode="&#xe914;" glyph-name="pfeil_rechts-unten" d="M628.527 155.159h-262.813v-146.286h512v512h-146.286v-261.736l-529.367 529.367-103.44-103.44 529.905-529.905z" />
<glyph unicode="&#xe915;" glyph-name="lupe" d="M603.439 663.065c19.169-62.751 12.78-129.188-18.022-187.146s-82.33-100.434-145.080-119.603c-62.833-19.21-129.27-12.82-187.187 17.981-119.603 63.611-165.151 212.705-101.581 332.268 30.802 57.958 82.33 100.434 145.080 119.603 23.757 7.25 48.005 10.854 72.131 10.854 39.69 0 79.012-9.708 115.057-28.877 57.958-30.802 100.434-82.33 119.603-145.080zM541.508 916.607c-86.876 46.285-186.614 55.951-280.781 27.116s-171.459-92.529-217.661-179.446c-95.396-179.446-27.034-403.046 152.412-498.442 54.026-28.754 113.009-43.336 172.524-43.336 36.25 0 72.622 5.407 108.257 16.302 38.42 11.715 73.81 29.532 105.636 52.142l314.409-314.409 86.876 86.876-314.532 314.532c9.093 12.861 17.736 26.132 25.231 40.264 46.244 86.958 55.828 186.655 27.075 280.781-28.754 94.167-92.529 171.418-179.446 217.62z" />
<glyph unicode="&#xe916;" glyph-name="podcast" d="M512.005 261.789c-102.696 0-186.231 83.536-186.231 186.209s83.536 186.209 186.231 186.209c102.673 0 186.209-83.536 186.209-186.209s-83.536-186.209-186.209-186.209zM512.005 747.984c-165.433 0-300.009-134.576-300.009-299.986s134.576-299.986 300.009-299.986c165.41 0 299.986 134.576 299.986 299.986s-134.576 299.986-299.986 299.986zM512.005 506.045c-32.063 0-58.049-25.987-58.049-58.049s25.987-58.049 58.049-58.049c32.040 0 58.049 25.987 58.049 58.049s-26.010 58.049-58.049 58.049zM512.005 49.766c-219.568 0-398.222 178.654-398.222 398.222 0 219.591 178.654 398.222 398.222 398.222s398.222-178.631 398.222-398.222c0-219.568-178.654-398.222-398.222-398.222zM512.005 959.989c-282.328 0-512-229.672-512-512 0-282.305 229.672-512 512-512 282.305 0 512 229.695 512 512 0 282.328-229.695 512-512 512z" />
<glyph unicode="&#xe917;" glyph-name="print" d="M73.143-64v1024h877.714v-1024h-877.714zM219.429 82.286h585.143v731.429h-585.143v-731.429zM326.217 521.143h371.419v146.286h-371.419zM326.217 228.571h371.419v146.286h-371.419z" />
<glyph unicode="&#xe918;" glyph-name="rss" d="M1024-64h-204.8c0 451.686-367.514 819.2-819.2 819.2v204.8c564.634 0 1024-459.366 1024-1024zM614.4-64h-204.8c0 225.894-183.706 409.6-409.6 409.6v204.8c338.842 0 614.4-275.558 614.4-614.4z" />
<glyph unicode="&#xe919;" glyph-name="schloss" d="M395.522 535.762v156.038c0 67.243 52.273 121.905 116.492 121.905s116.443-54.662 116.443-121.905c0-50.761 0.293-108.739 0.536-156.038h-233.472zM587.839 28.638h-151.698l35.84 129.024c-21.455 13.8-35.84 38.132-35.84 66.024 0 43.106 33.938 78.019 75.874 78.019 41.886 0 75.825-34.914 75.825-78.019 0-27.892-14.385-52.224-35.84-66.024l35.84-129.024zM775.28 535.762c-0.244 47.202-0.536 105.228-0.536 156.038 0 147.895-117.858 268.19-262.729 268.19-144.92 0-262.778-120.296-262.778-268.19v-156.038h-78.555v-624.152h682.667v624.152h-78.068z" />
<glyph unicode="&#xe91a;" glyph-name="share" d="M801.64 79.34c-54.845 0-99.492 43.909-99.492 97.894 0 53.944 44.646 97.812 99.492 97.812s99.492-43.868 99.492-97.812c0-53.985-44.646-97.894-99.492-97.894zM222.343 366.060c-54.845 0-99.451 43.909-99.451 97.853 0 53.985 44.605 97.853 99.451 97.853s99.492-43.868 99.492-97.853c0-53.944-44.646-97.853-99.492-97.853zM801.64 816.62c54.845 0 99.492-43.868 99.492-97.812 0-53.985-44.646-97.853-99.492-97.853s-99.492 43.868-99.492 97.853c0 53.944 44.646 97.812 99.492 97.812zM801.64 397.926c-65.085 0-123.576-28.058-164.291-72.458l-197.55 92.611c3.154 14.787 4.915 30.106 4.915 45.834 0 5.407-0.451 10.65-0.819 15.933l193.454 90.726c40.714-44.442 99.205-72.499 164.291-72.499 122.593 0 222.372 99 222.372 220.733 0 121.692-99.779 220.692-222.372 220.692s-222.372-99-222.372-220.692c0-13.025 1.352-25.723 3.564-38.134l-182.19-85.402c-40.55 54.108-105.267 89.375-178.299 89.375-122.593 0-222.331-99-222.331-220.733 0-121.692 99.738-220.733 222.331-220.733 62.259 0 118.497 25.6 158.925 66.642l201.564-94.536c-2.212-12.37-3.564-25.068-3.564-38.052 0-121.733 99.779-220.774 222.372-220.774s222.372 99.041 222.372 220.774c0 121.692-99.779 220.692-222.372 220.692z" />
<glyph unicode="&#xe91b;" glyph-name="video_gr" d="M512.003 9.136c-241.986 0-438.857 196.871-438.857 438.857s196.871 438.857 438.857 438.857c241.986 0 438.857-196.871 438.857-438.857s-196.871-438.857-438.857-438.857zM512.003 959.993c-282.317 0-512-229.683-512-512s229.683-512 512-512c282.317 0 512 229.683 512 512s-229.683 512-512 512zM392.761 641.571l193.565-193.58-193.565-193.565 51.712-51.712 245.292 245.277-245.292 245.292z" />
<glyph unicode="&#xe91c;" glyph-name="video_kl" d="M380.755 635.333l187.324-187.324-187.324-187.346 80.441-80.441 267.787 267.787-267.787 267.765zM512 49.766c-219.568 0-398.222 178.654-398.222 398.222 0 219.591 178.654 398.222 398.222 398.222s398.222-178.631 398.222-398.222c0-219.568-178.654-398.222-398.222-398.222zM512 959.989c-282.328 0-512-229.672-512-512 0-282.305 229.672-512 512-512 282.305 0 512 229.695 512 512 0 282.328-229.695 512-512 512z" />
<glyph unicode="&#xe91d;" glyph-name="www" d="M321.588 421.788l-29.787 100.329h-25.486l-29.787-100.329-26.601 117.146h-31.403l41.62-159.221h30.037l28.877 93.73 28.877-93.73h30.037l41.62 159.221h-31.403zM542.322 421.788l-29.787 100.329h-25.486l-29.787-100.329-26.601 117.146h-31.403l41.62-159.221h30.037l28.877 93.73 28.877-93.73h30.037l41.597 159.221h-31.38zM789.645 538.933l-26.601-117.146-29.81 100.329h-25.463l-29.764-100.329-26.624 117.146h-31.38l41.597-159.221h30.037l28.9 93.73 28.854-93.73h30.037l41.62 159.221zM512 49.766c-219.568 0-398.222 178.654-398.222 398.222 0 219.591 178.654 398.222 398.222 398.222s398.222-178.631 398.222-398.222c0-219.568-178.654-398.222-398.222-398.222zM512 959.989c-282.328 0-512-229.672-512-512 0-282.305 229.672-512 512-512 282.305 0 512 229.695 512 512 0 282.328-229.695 512-512 512z" />
</font>
</defs>
</svg>
