<?xml version="1.0" standalone="no"?>
<!DOCTYPE svg PUBLIC "-//W3C//DTD SVG 1.1//EN" "http://www.w3.org/Graphics/SVG/1.1/DTD/svg11.dtd" >
<svg xmlns="http://www.w3.org/2000/svg">
<metadata></metadata>
<defs>
<font id="SancoaleSoftenedLightLight" horiz-adv-x="1173" >
<font-face units-per-em="2048" ascent="1603" descent="-445" />
<missing-glyph horiz-adv-x="400" />
<glyph unicode="&#xfb01;" horiz-adv-x="949" d="M45 903v16q0 25 23 25h99v137q0 117 83 181.5t243 64.5q132 0 246 -36q18 -4 20.5 -14t-4.5 -27q-7 -23 -28 -18q-134 31 -227 31q-131 0 -192.5 -48.5t-61.5 -133.5v-137h495q23 0 23 -25v-739q0 -60 19 -88t63 -28q31 0 75 11q8 4 13 -4t8 -25q6 -23 -18 -28 q-42 -18 -92 -18q-73 0 -109.5 40.5t-36.5 137.5v702h-440v-855q0 -25 -25 -25h-30q-24 0 -24 25v855h-99q-23 0 -23 23z" />
<glyph unicode="&#xfb02;" horiz-adv-x="947" d="M45 903v16q0 25 23 25h99v137q0 117 83 181.5t243 64.5q121 0 246 -34q16 -6 18 -11q7 -6 7 -16v-1086q0 -40 8 -65t26.5 -38t47.5 -13t73 11q11 2 15.5 -5t5.5 -22q3 -15 -0.5 -20.5t-15.5 -9.5q-52 -18 -92 -18q-73 0 -109.5 40.5t-36.5 137.5v702h-440v-855 q0 -25 -25 -25h-30q-24 0 -24 25v855h-99q-23 0 -23 23zM246 944h440v299q-98 20 -186 20q-131 0 -192.5 -48.5t-61.5 -133.5v-137z" />
<glyph unicode="&#xfb03;" horiz-adv-x="1520" d="M45 905v14q0 25 23 25h94v60q0 85 34 141.5t108.5 87.5t190.5 31q140 0 267 -46q76 109 278 109q134 0 251 -34q18 -3 19.5 -13.5t-3.5 -27.5q-6 -23 -30 -20q-115 31 -226 31q-128 0 -189 -48.5t-61 -133.5v-137h508q25 0 25 -25v-739q0 -60 18.5 -88t61.5 -28 q30 0 77 13q13 4 16 -15l5 -21q5 -17 -13 -23q-52 -18 -99 -18q-72 0 -108 40.5t-36 137.5v702h-455v-855q0 -25 -25 -25h-28q-25 0 -25 25v855h-483v-855q0 -25 -25 -25h-28q-25 0 -25 25v855h-94q-23 0 -23 25zM240 944h483v139q0 41 11 80q-117 39 -232 39 q-60 0 -105.5 -9t-75 -25.5t-48 -41.5t-26 -54.5t-7.5 -67.5v-60z" />
<glyph unicode="&#xfb04;" horiz-adv-x="1552" d="M45 905v14q0 25 23 25h94v60q0 260 333 260q140 0 267 -46q76 109 278 109q164 0 301 -36q2 -1 5 -1.5t4 -1.5q18 -3 18 -24v-1084q0 -59 18.5 -86.5t63.5 -27.5q31 0 74 12q13 3 18 -14l4 -21q2 -12 0 -15.5t-13 -7.5q-52 -18 -98 -18q-74 0 -110 40.5t-36 137.5v700 h-488v-855q0 -25 -25 -25h-28q-25 0 -25 25v855h-483v-855q0 -25 -25 -25h-28q-25 0 -25 25v855h-94q-23 0 -23 25zM240 944h483v139q0 41 11 80q-117 39 -232 39q-146 0 -204 -50t-58 -148v-60zM801 944h488v295q-128 24 -238 24q-128 0 -189 -48.5t-61 -133.5v-137z" />
<glyph horiz-adv-x="0" />
<glyph horiz-adv-x="2048" />
<glyph unicode=" "  horiz-adv-x="400" />
<glyph unicode="&#x09;" horiz-adv-x="400" />
<glyph unicode="&#xa0;" horiz-adv-x="400" />
<glyph unicode="!" horiz-adv-x="306" d="M123 25v103q0 25 25 25h28q25 0 25 -25v-103q0 -25 -25 -25h-28q-25 0 -25 25zM123 337v926q0 25 25 25h28q25 0 25 -25v-926q0 -25 -25 -25h-28q-25 0 -25 25z" />
<glyph unicode="&#x22;" horiz-adv-x="577" d="M146 1256q-3 24 23 24h34q26 0 23 -24l-16 -357q0 -13 -5.5 -18t-17.5 -5h-2q-12 0 -16.5 5t-6.5 18zM349 1256q0 24 23 24h36q23 0 23 -24l-16 -357q-1 -13 -7 -18t-18 -5t-18 5t-7 18z" />
<glyph unicode="#" horiz-adv-x="1059" d="M71 338v22q0 25 23 25h186l128 345h-184q-25 0 -25 25v21q0 25 25 25h211l92 248q6 23 34 23h30q12 0 16 -5t0 -18l-92 -248h210l92 248q6 23 34 23h31q12 0 16 -5t0 -18l-93 -248h160q25 0 25 -25v-21q0 -25 -25 -25h-187l-128 -345h191q25 0 25 -25v-22q0 -25 -25 -25 h-218l-108 -290q-6 -23 -32 -23h-31q-23 0 -16 23l107 290h-210l-107 -290q-7 -23 -34 -23h-30q-23 0 -16 23l107 290h-159q-23 0 -23 25zM360 385h210l128 345h-210z" />
<glyph unicode="$" horiz-adv-x="902" d="M84 43l5 12q0 25 27 22q48 -10 131.5 -20.5t154.5 -10.5q62 0 112.5 10t85 25.5t60.5 39t40.5 47.5t23.5 53.5t12 54t3 52.5q0 73 -22 128.5t-59 90t-85 60.5t-101 45t-106.5 38.5t-101.5 45.5t-85 60.5t-59 90t-22 128.5q0 77 24 131.5t71 86t106.5 46.5t138.5 19v152 q0 23 25 23h34q25 0 25 -23v-150q142 -3 249 -30q18 -2 21 -13.5t-3 -27.5q-4 -16 -9 -20.5t-18 -1.5q-142 31 -270 31q-70 0 -122 -9t-98 -32.5t-70 -68.5t-24 -111q0 -62 22 -108.5t59.5 -75.5t86 -50.5t102 -40t106.5 -38.5t101.5 -50t86 -71t59.5 -106t22 -149 q0 -145 -71 -232t-236 -107v-167q0 -23 -24 -23h-34q-12 0 -17.5 5t-5.5 18v160h-31q-145 0 -299 32q-24 3 -21 29z" />
<glyph unicode="%" horiz-adv-x="1430" d="M100 958v20q0 145 67.5 224.5t197.5 79.5t197 -79.5t67 -224.5v-20q0 -145 -67 -224.5t-197 -79.5t-197.5 79.5t-67.5 224.5zM180 958q0 -116 46.5 -180t138.5 -64q91 0 137.5 64t46.5 180v20q0 116 -46.5 179t-137.5 63q-92 0 -138.5 -62.5t-46.5 -179.5v-20zM427 23 l474 1234q9 23 36 23h39q12 0 15 -5t-1 -18l-475 -1234q-6 -23 -34 -23h-38q-13 0 -16.5 5t0.5 18zM801 301v20q0 145 67.5 225.5t196.5 80.5q130 0 197.5 -80t67.5 -226v-20q0 -145 -67.5 -224t-197.5 -79t-197 79t-67 224zM882 301q0 -115 46 -178.5t137 -63.5 q92 0 138.5 63t46.5 179v20q0 117 -46.5 180.5t-138.5 63.5q-91 0 -137 -63.5t-46 -180.5v-20z" />
<glyph unicode="&#x26;" horiz-adv-x="1383" d="M114 342v27q0 95 29 162t91 110t160 61q-123 27 -181 95t-58 179v21q0 162 99 232.5t318 70.5q181 0 286 -16q18 -2 21 -10t-1 -27q0 -27 -25 -24q-138 13 -267 13q-182 0 -262 -55t-80 -185v-22q0 -121 86.5 -180.5t276.5 -63.5h713q25 0 25 -23v-16q0 -23 -25 -23h-271 v-643q0 -25 -25 -25h-34q-25 0 -25 25v643h-358q-215 0 -309.5 -71.5t-94.5 -227.5v-25q0 -157 87.5 -226.5t288.5 -69.5q125 0 288 20q5 0 9 -1t6.5 -1.5t4.5 -3.5t3.5 -4t2.5 -5.5t1 -6t1 -8t1 -8.5q1 -14 -4 -19t-18 -7q-142 -22 -309 -22q-239 0 -345 86.5t-106 273.5z " />
<glyph unicode="'" horiz-adv-x="361" d="M146 1256q-3 24 23 24h34q26 0 23 -24l-16 -357q0 -13 -5.5 -18t-17.5 -5h-2q-12 0 -16.5 5t-6.5 18z" />
<glyph unicode="(" horiz-adv-x="455" d="M75 550q0 225 71.5 431t190.5 333q6 6 10.5 9t9.5 2t7.5 -2t7.5 -5q3 -2 3.5 -4.5t0 -6t-1.5 -6t-3.5 -7t-3.5 -6.5q-92 -123 -144 -323.5t-52 -412.5q0 -211 53 -413t145 -324q1 -3 4 -7.5t4 -7t-0.5 -7t-6.5 -8.5q-14 -14 -32 1q-118 128 -190.5 333.5t-72.5 430.5z " />
<glyph unicode=")" horiz-adv-x="454" d="M80 -210q-3 8 -4 9t3.5 7t5.5 9q92 122 145 324t53 413q0 212 -52 412.5t-144 323.5q-10 21 -6 27q2 3 8 8q3 4 12 2t17 -11q119 -126 190 -332.5t71 -431.5t-72.5 -430.5t-190.5 -333.5q-19 -17 -36 4z" />
<glyph unicode="*" horiz-adv-x="628" d="M45 1129q10 22 30 11l217 -79l-7 223q-6 25 20 25h21q22 0 19 -25l-8 -223l215 79q8 4 13 5t8.5 -2.5t5.5 -6t5 -9.5t4 -10q9 -24 -15 -29l-222 -66l141 -192q6 -5 7.5 -10t-1 -10t-5.5 -8t-8.5 -8t-7.5 -7q-18 -18 -30 5l-132 204l-133 -204q-15 -24 -47 8q-9 8 -9.5 13 t9.5 17l143 192l-223 66q-28 4 -10 41z" />
<glyph unicode="+" horiz-adv-x="853" d="M12 467v19q0 23 24 23h359v373q0 24 25 24h20q25 0 25 -24v-373h351q25 0 25 -23v-19q0 -24 -25 -24h-351v-374q0 -24 -25 -24h-20q-25 0 -25 24v374h-359q-24 0 -24 24z" />
<glyph unicode="," horiz-adv-x="260" d="M53 -164l70 292q6 25 28 25h41q23 0 16 -23l-87 -294q-6 -23 -32 -23h-16q-26 0 -20 23z" />
<glyph unicode="-" horiz-adv-x="660" d="M148 518v20q0 25 25 25h319q23 0 23 -25v-20q0 -25 -23 -25h-319q-25 0 -25 25z" />
<glyph unicode="." horiz-adv-x="333" d="M123 25v103q0 25 25 25h37q25 0 25 -25v-103q0 -25 -25 -25h-37q-25 0 -25 25z" />
<glyph unicode="/" horiz-adv-x="690" d="M61 23l473 1234q9 23 34 23h39q13 0 16.5 -5t-0.5 -18l-475 -1234q-6 -23 -34 -23h-39q-12 0 -15 5t1 18z" />
<glyph unicode="0" horiz-adv-x="988" d="M84 623v43q0 301 103.5 467.5t307.5 166.5q202 0 306 -167t104 -467v-43q0 -301 -104.5 -471t-305.5 -170q-204 0 -307.5 169.5t-103.5 471.5zM176 623q0 -273 79.5 -422t239.5 -149q158 0 238.5 150t80.5 421v43q0 275 -80 420t-239 145q-319 0 -319 -565v-43z" />
<glyph unicode="1" horiz-adv-x="407" d="M85 1238v18q0 24 25 24h148q25 0 25 -24v-1231q0 -25 -25 -25h-32q-25 0 -25 25v1188h-91q-25 0 -25 25z" />
<glyph unicode="2" horiz-adv-x="975" d="M105 25v69q0 66 21.5 125t57.5 106t83 90.5t99 82.5t103.5 78t98.5 81.5t83 87.5t57.5 102t21.5 120v9q0 258 -274 258q-154 0 -292 -73q-7 -2 -12 -2t-8.5 1.5t-7 5.5t-5 6.5t-4.5 8.5t-4 9q-7 26 14 35q57 29 146 52t176 23q180 0 267.5 -86t87.5 -238v-11 q0 -89 -34.5 -167t-90 -135.5t-122.5 -110.5t-133.5 -103.5t-122 -102.5t-90 -119t-34.5 -142v-10h643q25 0 25 -25v-25q0 -25 -25 -25h-700q-25 0 -25 25z" />
<glyph unicode="3" horiz-adv-x="819" d="M36 45q3 26 26 23q107 -20 273 -20q179 0 261.5 71.5t82.5 224.5v25q0 155 -88.5 227t-284.5 72h-64q-23 0 -23 23v16q0 23 23 23h52q175 3 255 62.5t80 181.5v22q0 126 -79.5 183t-248.5 57q-106 0 -221 -14q-27 -3 -27 23l-3 9q-3 25 21 28q129 18 248 18 q207 0 302 -72t95 -232v-24q0 -211 -223 -269q142 -27 207.5 -109t65.5 -225v-27q0 -182 -100.5 -271t-318.5 -89q-172 0 -290 20q-18 4 -21.5 13.5t0.5 29.5z" />
<glyph unicode="4" horiz-adv-x="931" d="M84 219v203q0 72 34.5 135.5t89.5 111t121 93.5t132.5 92t121.5 95.5t89.5 115.5t34.5 142v54q0 23 25 23h34q25 0 25 -23v-62q0 -81 -34.5 -151.5t-89 -122.5t-121 -100t-133 -93t-121 -91t-89 -105.5t-34.5 -125.5v-139h531v345q0 25 25 25h35q25 0 25 -25v-345h38 q25 0 25 -25v-27q0 -25 -25 -25h-38v-169q0 -25 -25 -25h-35q-25 0 -25 25v169h-591q-25 0 -25 25z" />
<glyph unicode="5" horiz-adv-x="910" d="M109 30q1 22 6 30t22 8q137 -20 258 -20q186 0 268.5 77.5t82.5 250.5v10q0 179 -87.5 262.5t-280.5 83.5h-191q-12 0 -17.5 5t-5.5 18l34 502q3 25 25 25h584q25 0 25 -25v-23q0 -23 -25 -23h-531l-27 -417h130q246 0 350 -99t104 -309v-12q0 -202 -100.5 -297 t-322.5 -95q-160 0 -278 22q-14 3 -18.5 8t-4.5 18z" />
<glyph unicode="6" horiz-adv-x="954" d="M84 402v120q0 157 49 286.5t141 224t216 160t281 102.5q19 5 26 -3t12 -29q3 -17 -2 -22.5t-22 -9.5q-241 -58 -395 -188t-205 -322q104 128 312 128q185 0 280.5 -111t95.5 -307v-29q0 -196 -101 -308t-295 -112t-293.5 111.5t-99.5 308.5zM171 404q0 -169 75.5 -261.5 t230.5 -92.5q153 0 230.5 92.5t77.5 261.5v27q0 169 -77.5 260t-230.5 91q-306 0 -306 -351v-27z" />
<glyph unicode="7" horiz-adv-x="881" d="M84 1234v27q0 23 25 23h664q25 0 25 -23v-91q0 -70 -20.5 -135t-54.5 -118t-78.5 -103.5t-94 -97t-98.5 -93.5t-93.5 -99t-78.5 -106.5t-54.5 -122t-20.5 -140.5v-130q0 -25 -25 -25h-32q-23 0 -23 25v139q0 97 33 184t85 154t115.5 130t127 123.5t115.5 122.5t85 140 t33 163v28h-610q-25 0 -25 25z" />
<glyph unicode="8" horiz-adv-x="1020" d="M96 351v23q0 127 60.5 213t180.5 120q-196 61 -196 278v19q0 143 92.5 219.5t275.5 76.5t276 -77t93 -219v-19q0 -105 -49.5 -176t-146.5 -102q120 -34 181 -120t61 -213v-23q0 -173 -105.5 -271t-309.5 -98t-308.5 97.5t-104.5 271.5zM182 351q0 -143 82 -224t245 -81 q164 0 247 80.5t83 224.5v23q0 144 -83 222.5t-247 78.5t-245.5 -78t-81.5 -223v-23zM221 979q0 -116 72.5 -179t215.5 -63t216 63.5t73 178.5v18q0 115 -73 178t-216 63t-215.5 -63t-72.5 -178v-18z" />
<glyph unicode="9" horiz-adv-x="954" d="M82 851v29q0 197 100.5 308.5t294.5 111.5q130 0 219.5 -52t132 -145t42.5 -223v-120q0 -157 -49.5 -286.5t-141.5 -223.5t-216 -159.5t-281 -102.5q-19 -5 -25.5 2.5t-11.5 29.5q-3 17 1.5 22.5t21.5 9.5q239 57 393.5 185.5t205.5 321.5q-102 -126 -310 -126 q-185 0 -280.5 111t-95.5 307zM169 851q0 -169 77.5 -260t230.5 -91q156 0 231.5 90.5t75.5 260.5v27q0 169 -76 261.5t-231 92.5q-153 0 -230.5 -92.5t-77.5 -261.5v-27z" />
<glyph unicode=":" horiz-adv-x="333" d="M123 25v103q0 25 25 25h37q25 0 25 -25v-103q0 -25 -25 -25h-37q-25 0 -25 25zM123 835v104q0 24 25 24h37q25 0 25 -24v-104q0 -25 -25 -25h-37q-25 0 -25 25z" />
<glyph unicode=";" horiz-adv-x="268" d="M37 -164l70 292q6 25 28 25h41q23 0 16 -23l-87 -294q-6 -23 -30 -23h-18q-26 0 -20 23zM96 828v109q0 25 25 25h41q25 0 25 -25v-109q0 -25 -25 -25h-41q-25 0 -25 25z" />
<glyph unicode="&#x3c;" horiz-adv-x="956" d="M87 463v25q0 22 20 28l719 305q20 7 20 -12v-27q0 -20 -20 -27l-666 -280l666 -281q20 -6 20 -27v-25q0 -19 -20 -12l-719 305q-20 5 -20 28z" />
<glyph unicode="=" horiz-adv-x="865" d="M16 283v23q0 20 20 20h790q22 0 22 -20v-23q0 -21 -22 -21h-790q-20 0 -20 21zM18 655v24q0 19 19 19h789q22 0 22 -19v-24q0 -19 -22 -19h-789q-19 0 -19 19z" />
<glyph unicode="&#x3e;" horiz-adv-x="885" d="M87 142v27q0 18 16 25l672 281l-672 282q-16 7 -16 25v27q0 8 3.5 10t14.5 -2l720 -302q17 -6 17 -27v-25q0 -22 -17 -27l-720 -304q-11 -3 -14.5 -1t-3.5 11z" />
<glyph unicode="?" horiz-adv-x="879" d="M93 1209q-4 13 -1.5 20t15.5 12q34 14 87 27t119 22.5t122 9.5q92 0 160.5 -21.5t111 -62t63.5 -95.5t21 -125v-36q0 -52 -15.5 -99.5t-40 -83t-56.5 -71t-65.5 -63.5t-65.5 -60.5t-56.5 -63t-40 -69.5t-15.5 -81v-123q0 -23 -25 -23h-33q-24 0 -24 23v124q0 43 12 82.5 t32.5 71t47 61t56 56t58.5 53.5t55.5 56t47 60t32.5 69.5t12 80.5v34q0 113 -67 176.5t-211 63.5q-72 0 -154 -17.5t-145 -39.5q-17 -5 -23.5 2.5t-12.5 26.5q-1 2 -1 3zM347 25v103q0 25 25 25h39q24 0 24 -25v-103q0 -25 -24 -25h-39q-25 0 -25 25z" />
<glyph unicode="@" horiz-adv-x="1697" d="M151 584v46q0 156 41.5 278t126 210.5t221.5 135t320 46.5q215 0 368 -62.5t236.5 -191t83.5 -314.5v-48q0 -396 -369 -517q-150 -49 -331 -49q-378 0 -378 261v18q0 124 94 191t268 67q133 0 281 -50v221q-2 94 -58 144t-184 50q-63 0 -148.5 -10t-141.5 -22 q-9 -2 -14.5 0.5t-7.5 6t-4.5 12.5t-4.5 13q-3 14 1.5 19t21.5 8q62 13 150 22.5t155 9.5q306 0 306 -253v-600q294 111 294 458v48q0 250 -157 383t-463 133q-637 0 -637 -618v-46q0 -92 16 -172t48.5 -150.5t85 -125.5t123 -94t165 -60t208.5 -21q159 0 315 34t252 87 q17 6 23 2.5t12 -20.5q8 -17 -14 -27q-101 -57 -260.5 -93.5t-328.5 -36.5q-186 0 -325.5 50.5t-223.5 143t-125 213.5t-41 270zM549 379q0 -112 77.5 -161t228.5 -49q141 0 258 38v345q-37 17 -111.5 32.5t-159.5 15.5q-293 0 -293 -208v-13z" />
<glyph unicode="A" horiz-adv-x="1016" d="M85 23q16 209 54.5 404t82.5 331.5t93 248t85 170.5t59 82q16 23 40 23h21q18 0 39 -21q23 -21 59 -78.5t84 -167.5t91.5 -246.5t82 -334t55.5 -411.5q2 -13 -2.5 -18t-18.5 -5h-36q-22 0 -25 23q-18 188 -51 376h-581q-33 -178 -50 -376q-3 -23 -25 -23h-35 q-13 0 -17.5 5t-4.5 18zM232 468h553q-59 284 -141.5 483.5t-134.5 254.5q-52 -53 -135.5 -253.5t-141.5 -484.5z" />
<glyph unicode="B" horiz-adv-x="1024" d="M148 30v1226q0 22 25 26q132 18 297 18q208 0 300 -69t92 -232v-23q0 -208 -198 -271q150 -31 221 -114.5t71 -227.5v-25q0 -185 -109 -270.5t-354 -85.5q-186 0 -322 22q-23 7 -23 26zM230 62q146 -16 278 -16q192 0 276.5 71t84.5 227v23q0 156 -96.5 227.5 t-309.5 71.5h-233v-604zM230 732h194q185 0 269.5 59t84.5 185v20q0 127 -71 184.5t-228 57.5q-88 0 -249 -15v-491z" />
<glyph unicode="C" horiz-adv-x="959" d="M84 620v42q0 156 28.5 272t89 199t160 125t238.5 42q114 0 251 -30q27 -5 22 -27q-1 -4 -3 -11t-3 -10t-3.5 -8.5t-5 -6.5t-7 -3.5t-10.5 0.5q-111 27 -228 27q-125 0 -211.5 -38t-136.5 -114t-72 -177t-22 -240v-44q0 -282 101.5 -424t338.5 -142q123 0 235 23 q23 5 27 -23q3 -21 0.5 -31t-18.5 -14q-111 -25 -258 -25q-271 0 -392 160.5t-121 477.5z" />
<glyph unicode="D" horiz-adv-x="1137" d="M148 39v1200q0 14 5 19.5t20 9.5q176 32 315 32q295 0 430.5 -154t135.5 -480v-43q0 -325 -136.5 -483t-431.5 -158q-180 0 -313 30q-14 3 -19.5 8.5t-5.5 18.5zM232 77q119 -25 258 -25q249 0 363 138.5t114 432.5v43q0 291 -113.5 428t-360.5 137q-136 0 -261 -25 v-1129z" />
<glyph unicode="E" horiz-adv-x="872" d="M52 342v27q0 143 67 224.5t214 108.5q-124 27 -182 95t-58 179v21q0 162 98.5 232.5t317.5 70.5q124 0 289 -14q19 -2 21.5 -15t-2.5 -24q-3 -25 -25 -22q-117 11 -267 11q-182 0 -262 -55t-80 -185v-22q0 -123 90 -182t288 -62h94q24 0 24 -23v-16q0 -23 -24 -23h-108 q-214 0 -309.5 -72t-95.5 -227v-25q0 -157 86.5 -226.5t287.5 -69.5q119 0 293 20q26 3 26 -27v-11q0 -23 -21 -28q-151 -20 -310 -20q-239 0 -345.5 86.5t-106.5 273.5z" />
<glyph unicode="F" horiz-adv-x="920" d="M148 25v971q0 160 93.5 232t299.5 72q79 0 166.5 -9.5t136.5 -22.5q16 -5 19 -13t-3 -26q-4 -16 -9 -20.5t-18 -1.5q-118 27 -281 27q-164 0 -242 -57t-78 -181v-328h507q25 0 25 -25v-21q0 -25 -25 -25h-507v-572q0 -25 -25 -25h-34q-25 0 -25 25z" />
<glyph unicode="G" horiz-adv-x="1084" d="M84 618v44q0 316 133.5 477t428.5 161q125 0 278 -30q4 -1 7 -2.5t5.5 -3t4 -4t2.5 -4t1 -5t0.5 -5t-0.5 -6t-1 -6t-1.5 -7t-1.5 -7.5q-3 -14 -9 -19t-19 -2q-140 30 -260 30q-257 0 -369 -140t-112 -427v-44q0 -285 110.5 -425t356.5 -140q122 0 231 16v533q0 25 25 25 h34q25 0 25 -25v-565q0 -21 -13 -21q-2 0 -5 -2t-5 -2q-159 -30 -298 -30q-290 0 -419 160t-129 476z" />
<glyph unicode="H" horiz-adv-x="1105" d="M148 25v1232q0 25 25 25h34q25 0 25 -25v-552h641v552q0 25 25 25h35q25 0 25 -25v-1232q0 -25 -25 -25h-35q-25 0 -25 25v611h-641v-611q0 -25 -25 -25h-34q-25 0 -25 25z" />
<glyph unicode="I" horiz-adv-x="379" d="M148 25v1232q0 25 25 25h34q25 0 25 -25v-1232q0 -25 -25 -25h-34q-25 0 -25 25z" />
<glyph unicode="J" horiz-adv-x="858" d="M37 37l8 20q2 14 7.5 18t18.5 3q128 -28 223 -28q174 0 253.5 79t79.5 250v878q0 25 25 25h35q24 0 24 -25v-878q0 -202 -94.5 -299.5t-304.5 -97.5q-137 0 -253 29q-14 2 -18.5 7.5t-3.5 18.5z" />
<glyph unicode="K" horiz-adv-x="999" d="M148 25v1232q0 25 25 25h34q25 0 25 -25v-543q55 21 126.5 66t153.5 112.5t155 164t111 200.5q9 16 15 20.5t21 4.5h30q19 0 23 -7t-1 -19q-36 -106 -104.5 -203.5t-149.5 -169.5t-152 -121.5t-139 -84.5q54 -30 109.5 -67t128 -98.5t132 -129t112.5 -160t79 -190.5 q10 -32 -16 -32h-31q-16 0 -22.5 5t-14.5 22q-25 95 -80 186.5t-118.5 158.5t-136 124t-129.5 91t-102 52v-614q0 -25 -25 -25h-34q-25 0 -25 25z" />
<glyph unicode="L" horiz-adv-x="851" d="M132 397v860q0 25 25 25h35q23 0 23 -25v-847q0 -171 76 -256t250 -85h253q25 0 25 -23v-21q0 -25 -25 -25h-278q-200 0 -292 99t-92 298z" />
<glyph unicode="M" horiz-adv-x="1766" d="M148 25v1136q0 21 23 32q71 42 177 74.5t204 32.5q235 0 322 -98q82 41 188 69.5t201 28.5q179 0 267.5 -94t88.5 -257v-924q0 -25 -25 -25h-34q-25 0 -25 25v928q0 130 -66.5 204t-209.5 74q-84 0 -183 -29.5t-164 -63.5q10 -30 10 -69v-1044q0 -25 -24 -25h-34 q-25 0 -25 25v1040q0 77 -70 121.5t-220 44.5q-79 0 -176.5 -30t-140.5 -59v-1117q0 -25 -25 -25h-34q-25 0 -25 25z" />
<glyph unicode="N" horiz-adv-x="1100" d="M148 25v1136q0 23 23 30q67 40 186.5 74.5t226.5 34.5q187 0 278 -98.5t91 -271.5v-905q0 -25 -25 -25h-36q-23 0 -23 25v901q0 305 -292 305q-85 0 -192.5 -29.5t-152.5 -59.5v-1117q0 -25 -25 -25h-34q-25 0 -25 25z" />
<glyph unicode="O" d="M84 623v43q0 302 125.5 468t378.5 166q250 0 377 -166.5t127 -467.5v-43q0 -302 -127.5 -471.5t-376.5 -169.5q-252 0 -378 169t-126 472zM169 623q0 -272 105.5 -422.5t313.5 -150.5q206 0 311 151t105 422v43q0 275 -104.5 420.5t-311.5 145.5q-209 0 -314 -145.5 t-105 -420.5v-43z" />
<glyph unicode="P" horiz-adv-x="983" d="M148 25v1222q0 23 23 26q165 27 296 27q240 0 349.5 -100.5t109.5 -317.5v-31q0 -212 -111 -312.5t-354 -100.5q-122 0 -229 14v-427q0 -25 -25 -25h-34q-25 0 -25 25zM232 520q146 -14 235 -14q194 0 282 84t88 263v29q0 181 -88 265.5t-281 84.5q-136 0 -236 -14v-698z " />
<glyph unicode="Q" d="M84 623v43q0 302 125.5 468t378.5 166q250 0 377 -166.5t127 -467.5v-43q0 -286 -114.5 -454t-339.5 -185q52 -81 158 -131.5t224 -50.5q10 0 16 -9t6 -19v-13q0 -16 -7 -20.5t-23 -4.5q-164 9 -289.5 74t-173.5 174q-233 12 -349 179.5t-116 459.5zM171 623 q0 -272 104.5 -421.5t312.5 -149.5q206 0 310.5 150t104.5 421v43q0 275 -104 420t-311 145q-209 0 -313 -144.5t-104 -420.5v-43z" />
<glyph unicode="R" horiz-adv-x="983" d="M148 25v1223q0 13 5 18.5t18 8.5q154 25 281 25q213 0 310.5 -89t97.5 -278v-30q0 -157 -75.5 -244t-237.5 -107q111 -77 216.5 -214.5t150.5 -309.5q4 -16 0.5 -22t-20.5 -6h-32q-14 0 -20.5 4.5t-11.5 18.5q-23 83 -64.5 162t-88 138t-96.5 107.5t-91.5 77t-72.5 39.5 q-67 0 -185 10v-532q0 -25 -25 -25h-34q-25 0 -25 25zM232 623q10 0 91 -7t129 -7q167 0 243 72.5t76 223.5v28q0 155 -76 227t-243 72q-95 0 -220 -19v-590z" />
<glyph unicode="S" horiz-adv-x="938" d="M85 39v18q0 24 29 21q27 -6 75 -12t111.5 -12t114.5 -6q62 0 112.5 9.5t85 25.5t60.5 39t40.5 46.5t23.5 52.5t12 53.5t3 51.5q0 73 -22 129t-59.5 91t-86 61.5t-102.5 46t-107.5 39t-102 45t-86 60t-59.5 89t-22 125.5q0 67 19 117.5t52.5 82.5t84.5 52t109.5 28 t133.5 8q150 0 283 -30q17 -5 19.5 -16t-3.5 -29q-3 -14 -8 -18t-17 -3q-126 30 -274 30q-77 0 -130.5 -9t-98 -32t-66.5 -67t-22 -111q0 -61 22 -107t59.5 -74.5t86 -50.5t102 -40t107 -38t102 -50.5t86 -71.5t59.5 -106t22 -149q0 -346 -416 -346q-166 0 -308 32 q-24 3 -24 25z" />
<glyph unicode="T" horiz-adv-x="851" d="M11 1239v18q0 25 25 25h780q25 0 25 -25v-18q0 -24 -25 -24h-348v-1190q0 -25 -25 -25h-33q-25 0 -25 25v1190h-349q-25 0 -25 24z" />
<glyph unicode="U" horiz-adv-x="1111" d="M148 402v855q0 25 25 25h32q25 0 25 -25v-851q0 -167 79 -260.5t248 -93.5q78 0 177.5 12t147.5 23v1170q0 25 24 25h33q24 0 24 -25v-1196q0 -14 -5 -20.5t-19 -10.5q-66 -18 -176.5 -33t-208.5 -15q-209 0 -307.5 110.5t-98.5 309.5z" />
<glyph unicode="V" horiz-adv-x="1036" d="M82 1259q-2 12 3 17.5t20 5.5h34q23 0 27 -23q44 -248 94 -453t100.5 -348t83.5 -222t74 -163q228 456 355 1186q3 9 4.5 12.5t7 7t14.5 3.5h32q7 0 12 -1t9.5 -6.5t2.5 -15.5q-75 -439 -179 -760t-197 -474q-15 -25 -45 -25h-30q-30 0 -46 25q-91 158 -198 482.5 t-178 751.5z" />
<glyph unicode="W" horiz-adv-x="1706" d="M82 1259q-4 23 21 23h36q14 0 19 -5.5t8 -19.5q20 -209 54 -397.5t70 -315t76.5 -230t69 -156.5t50.5 -81q20 26 47.5 78.5t68.5 157.5t78 232t73 316t56 396q3 14 8 19.5t18 5.5h36q14 0 19 -5.5t8 -19.5q20 -207 55 -396t72 -315.5t78 -231.5t68 -157t47 -80 q22 26 51 80t69 157.5t76.5 230.5t71 315t54.5 397q6 25 27 25h36q28 0 21 -23q-19 -235 -65 -456.5t-101 -375.5t-102 -255t-83 -149q-10 -23 -34 -23h-39q-25 0 -34 23q-31 43 -71.5 126t-90 216t-91.5 330.5t-60 413.5q-19 -215 -61 -411t-92 -330.5t-89.5 -216.5 t-70.5 -128q-13 -23 -36 -23h-36q-22 0 -39 23q-37 51 -84 154t-101 257.5t-99 374t-63 450.5z" />
<glyph unicode="X" horiz-adv-x="1043" d="M100 25q19 109 60 212.5t92 181t96 131t87 91.5q-100 92 -197.5 251.5t-137.5 364.5q-7 25 21 25h34q20 0 27 -25q24 -120 72 -227.5t100.5 -177.5t95.5 -113t72 -59q28 16 71.5 60t96 114.5t100.5 177t72 222.5q4 16 9.5 22t20.5 6h29q16 0 20 -6.5t1 -21.5 q-43 -205 -140.5 -363.5t-194.5 -247.5q44 -39 90 -94t96.5 -132.5t91 -180.5t59.5 -211q2 -14 -2.5 -19.5t-20.5 -5.5h-31q-14 0 -19 5t-7 16q-19 95 -55 185.5t-76 156t-82.5 118.5t-75.5 82.5t-53 38.5q-29 -14 -73.5 -58.5t-96.5 -115.5t-99.5 -178.5t-70.5 -224.5 q-4 -14 -9.5 -19.5t-19.5 -5.5h-30q-18 0 -22 6t-1 19z" />
<glyph unicode="Y" horiz-adv-x="947" d="M52 1261q0 11 4.5 16t18.5 5h32q27 0 30 -21q18 -112 52.5 -218t73.5 -182t81.5 -139t75 -98t54.5 -49q29 19 73.5 73t98 138.5t100 211.5t66.5 263q4 21 30 21h31q15 0 20 -5t3 -16q-16 -120 -54 -235t-81.5 -197.5t-93 -154t-86 -111t-63.5 -61.5v-477q0 -25 -25 -25 h-39q-23 0 -23 25v477q-72 58 -153.5 177.5t-147.5 280.5t-78 301z" />
<glyph unicode="Z" horiz-adv-x="1022" d="M100 25v155q0 89 39.5 166.5t103 136t139.5 113.5t152.5 110t140 113t103 134.5t39.5 164.5v95h-673q-25 0 -25 23v21q0 25 25 25h732q25 0 25 -25v-149q0 -76 -24.5 -144t-66 -120.5t-95.5 -101.5t-113.5 -91.5t-119.5 -84t-114 -85.5t-95.5 -90.5t-66 -104.5 t-24.5 -122v-93h712q25 0 25 -25v-21q0 -25 -25 -25h-769q-25 0 -25 25z" />
<glyph unicode="[" horiz-adv-x="409" d="M98 -173v1430q0 25 25 25h164q25 0 25 -25v-12q0 -25 -25 -25h-109v-1355h109q25 0 25 -25v-13q0 -25 -25 -25h-164q-25 0 -25 25z" />
<glyph unicode="\" horiz-adv-x="671" d="M57 1257q-4 13 -1 18t15 5h27q25 0 34 -23l481 -1236q9 -23 -15 -23h-25q-26 0 -35 23z" />
<glyph unicode="]" horiz-adv-x="409" d="M98 -160q0 25 25 25h109v1355h-109q-25 0 -25 25v12q0 25 25 25h164q25 0 25 -25v-1430q0 -25 -25 -25h-164q-25 0 -25 25v13z" />
<glyph unicode="^" horiz-adv-x="863" d="M84 812l352 463q16 19 32 0l353 -463q16 -20 -9 -20h-39q-25 0 -38 20l-283 376l-283 -376q-13 -20 -39 -20h-37q-25 0 -9 20z" />
<glyph unicode="_" horiz-adv-x="1136" d="M148 -114q0 25 25 25h794q23 0 23 -25v-21q0 -25 -23 -25h-794q-25 0 -25 25v21z" />
<glyph unicode="`" horiz-adv-x="267" d="M-4 1239q-7 12 -4.5 15t13.5 3h41q26 0 38 -19l112 -168q15 -19 -9 -19h-25q-24 0 -41 18z" />
<glyph unicode="a" horiz-adv-x="915" d="M75 249v20q0 126 92 194t264 68q126 0 272 -47v216q0 95 -54 146.5t-181 51.5q-143 0 -285 -32q-5 -4 -10 -1t-7 2.5t-4.5 5t-3 7.5t-2.5 9t-3 10q-3 14 1 20t19 9q151 34 308 34q161 0 231 -66t70 -194v-638q0 -14 -4 -19.5t-19 -10.5q-129 -52 -307 -52q-68 0 -123 8 t-103 27t-81 49t-51.5 76.5t-18.5 106.5zM160 251q0 -111 75 -160.5t221 -49.5q136 0 247 39v344q-35 17 -106 32.5t-154 15.5q-283 0 -283 -207v-14z" />
<glyph unicode="b" horiz-adv-x="970" d="M132 61v1221q0 22 23 22h34q21 0 21 -22v-384q126 64 273 64q192 0 291 -117.5t99 -333.5v-18q0 -115 -21.5 -203t-59 -145.5t-93.5 -94.5t-121 -52.5t-145 -15.5q-81 0 -159.5 15.5t-120.5 36.5q-21 8 -21 27zM210 85q31 -16 94 -27.5t131 -11.5q83 0 145 22t110 72 t72.5 138.5t24.5 213.5v16q0 189 -80 288.5t-242 99.5q-76 0 -148.5 -19.5t-106.5 -41.5v-750z" />
<glyph unicode="c" horiz-adv-x="794" d="M98 458v28q0 476 394 476q98 0 204 -18q17 -2 19.5 -13t-3.5 -28q-3 -12 -8 -16.5t-15 -3.5q-13 2 -37.5 5t-32 4t-24.5 2.5t-27.5 2t-27.5 1t-38 0.5q-166 0 -243 -105t-77 -307v-32q0 -203 80 -305.5t251 -102.5q90 0 182 16q6 1 10.5 -1t6 -6.5t2 -7.5t0.5 -6 q2 -9 3 -15t-0.5 -11t-6 -8.5t-12.5 -4.5q-113 -20 -198 -20q-212 0 -307 119.5t-95 356.5z" />
<glyph unicode="d" horiz-adv-x="954" d="M98 458v17q0 236 96.5 361.5t293.5 125.5q131 0 256 -59v376q0 25 24 25h30q25 0 25 -25v-1220q0 -13 -5 -19.5t-20 -9.5q-49 -17 -137.5 -32.5t-161.5 -15.5q-401 0 -401 476zM182 458q0 -216 81 -314t237 -98q64 0 137 12.5t107 26.5v750q-120 61 -242 61 q-320 0 -320 -422v-16z" />
<glyph unicode="e" horiz-adv-x="926" d="M98 458v32q0 472 370 472q183 0 269 -115.5t86 -340.5v-13q0 -25 -25 -25h-616v-10q0 -218 83 -315t264 -97q115 0 265 29q22 5 25 -16q5 -13 6 -20.5t-3.5 -14.5t-16.5 -10q-130 -32 -283 -32q-219 0 -321.5 114t-102.5 362zM182 527h564q-3 183 -69.5 277t-208.5 94 q-145 0 -213 -93t-73 -278z" />
<glyph unicode="f" horiz-adv-x="491" d="M45 905v14q0 25 23 25h99v137q0 119 53.5 182.5t162.5 63.5q47 0 133 -16q19 -5 16 -23l-5 -25q-3 -12 -6 -14.5t-12 -0.5q-75 15 -115 15q-148 0 -148 -182v-137h169q23 0 23 -25v-14q0 -23 -23 -23h-169v-857q0 -25 -25 -25h-30q-24 0 -24 25v857h-99q-23 0 -23 23z " />
<glyph unicode="g" horiz-adv-x="954" d="M62 -308q3 22 27 19q207 -17 312 -17q155 0 236.5 28.5t81.5 97.5q0 41 -29 67t-75.5 38t-102.5 20.5t-112.5 19.5t-103 28.5t-75.5 53.5t-29 90q0 92 93 130q-214 67 -214 326v23q0 166 92 256t273 90q175 0 269 -88q15 48 48.5 68t88.5 20q52 0 97 -18q19 -7 8 -38 q-1 -2 -2.5 -10t-5 -11t-11.5 -2q-45 15 -82 15q-79 0 -82 -102q37 -74 37 -180v-23q0 -166 -92 -256.5t-273 -90.5h-9q-151 -7 -151 -107q0 -39 29 -64t75.5 -37t102 -21t111.5 -20.5t102.5 -30t75.5 -55t29 -89.5q0 -98 -93.5 -143.5t-287.5 -45.5q-166 0 -335 18 q-19 2 -22 9t-1 32zM155 593q0 -136 70.5 -211.5t210.5 -75.5t211 76t71 211v23q0 136 -70.5 209t-211.5 73t-211 -73t-70 -209v-23z" />
<glyph unicode="h" horiz-adv-x="965" d="M132 25v1277q0 25 25 25h30q23 0 23 -25v-404q162 64 315 64q157 0 232.5 -86t75.5 -238v-613q0 -25 -24 -25h-31q-23 0 -23 25v607q0 124 -59.5 194t-186.5 70q-74 0 -165 -21.5t-134 -42.5v-807q0 -25 -23 -25h-30q-25 0 -25 25z" />
<glyph unicode="i" horiz-adv-x="397" d="M130 1140v101q0 23 25 23h39q23 0 23 -23v-101q0 -25 -23 -25h-39q-25 0 -25 25zM135 178v741q0 25 23 25h31q25 0 25 -25v-739q0 -60 18.5 -88t61.5 -28q20 0 75 13q4 1 7.5 -0.5t5.5 -5.5t3.5 -8t2.5 -9.5t2 -7.5q3 -24 -16 -30q-53 -16 -94 -16q-72 0 -108.5 40.5 t-36.5 137.5z" />
<glyph unicode="j" horiz-adv-x="345" d="M-121 -329q0 14 5.5 18t22.5 3q35 -11 104 -11q121 0 121 134v1104q0 25 25 25h30q23 0 23 -25v-1106q0 -198 -183 -198q-75 0 -125 13q-13 3 -18 8.5t-5 19.5v15zM130 1140v101q0 23 23 23h39q25 0 25 -23v-101q0 -25 -25 -25h-39q-23 0 -23 25z" />
<glyph unicode="k" horiz-adv-x="847" d="M132 25v1277q0 25 25 25h30q23 0 23 -25v-787q51 16 114.5 48t137.5 82t137 123t94 154q2 2 5 6.5t5 6.5l4.5 4.5t6 3.5t7.5 1h34q27 0 20 -22q-27 -80 -84.5 -154.5t-130 -130.5t-139 -96t-132.5 -69q53 -24 105 -52.5t114 -72t112.5 -90.5t93 -109t61.5 -127 q4 -13 -1.5 -17t-20.5 -4h-28q-9 0 -15.5 4t-8 6t-5.5 10q-34 82 -99 155t-138 123t-135.5 82t-113.5 49v-404q0 -25 -23 -25h-30q-25 0 -25 25z" />
<glyph unicode="l" horiz-adv-x="395" d="M134 178v1124q0 25 24 25h29q25 0 25 -25v-1122q0 -60 18.5 -88t63.5 -28q25 0 75 14q4 2 7.5 0.5t5.5 -6t3.5 -8.5t2.5 -10.5t2 -8.5q1 -15 -2.5 -20.5t-15.5 -8.5q-53 -16 -94 -16q-72 0 -108 41t-36 137z" />
<glyph unicode="m" horiz-adv-x="1515" d="M132 25v824q0 27 25 34q54 30 146 54.5t178 24.5q198 0 276 -93q67 39 151.5 66t158.5 27q162 0 239.5 -89.5t77.5 -250.5v-597q0 -25 -25 -25h-29q-25 0 -25 25v591q0 132 -59 206t-185 74q-65 0 -144 -31.5t-119 -63.5v-776q0 -25 -25 -25h-30q-25 0 -25 25v721 q-7 150 -244 150q-64 0 -144.5 -21.5t-119.5 -42.5v-807q0 -25 -23 -25h-30q-25 0 -25 25z" />
<glyph unicode="n" horiz-adv-x="965" d="M132 25v824q0 25 25 38q58 29 159.5 52t196.5 23q163 0 241.5 -85.5t78.5 -237.5v-614q0 -25 -24 -25h-31q-23 0 -23 25v607q0 124 -59.5 194t-186.5 70q-74 0 -165 -21.5t-134 -42.5v-807q0 -25 -23 -25h-30q-25 0 -25 25z" />
<glyph unicode="o" horiz-adv-x="986" d="M98 458v32q0 223 99.5 347.5t295.5 124.5t296 -124.5t100 -347.5v-32q0 -223 -100 -349.5t-296 -126.5t-295.5 126.5t-99.5 349.5zM182 458q0 -194 78 -303t233 -109t233.5 108.5t78.5 303.5v32q0 196 -78 302t-234 106t-233.5 -106t-77.5 -302v-32z" />
<glyph unicode="p" horiz-adv-x="970" d="M132 -335v1215q0 27 25 34q43 22 123.5 35t166.5 13q199 0 312.5 -113t113.5 -357v-18q0 -239 -100.5 -365.5t-305.5 -126.5q-124 0 -257 41v-358q0 -25 -23 -25h-30q-25 0 -25 25zM210 89q33 -15 105 -29t137 -14q335 0 335 429v17q0 211 -90 308.5t-250 97.5 q-68 0 -136 -11.5t-101 -26.5v-771z" />
<glyph unicode="q" horiz-adv-x="970" d="M98 484v18q0 215 121.5 337.5t318.5 122.5q75 0 152.5 -15.5t123.5 -34.5q23 -7 23 -30v-1217q0 -25 -23 -25h-30q-25 0 -25 25v378q-130 -61 -260 -61q-203 0 -302 129t-99 373zM182 488q0 -440 331 -440q68 0 141.5 20t104.5 41v751q-29 15 -92 26.5t-127 11.5 q-163 0 -260.5 -105.5t-97.5 -288.5v-16z" />
<glyph unicode="r" horiz-adv-x="646" d="M132 25v855q0 20 25 30q107 52 265 52q93 0 162 -15q16 -4 18 -15t-4 -27q-3 -16 -7.5 -20t-17.5 -3q-57 14 -147 14q-125 0 -216 -43v-828q0 -25 -23 -25h-30q-25 0 -25 25z" />
<glyph unicode="s" horiz-adv-x="790" d="M71 37v13q0 17 6.5 21.5t20.5 1.5q174 -27 264 -27q78 0 132.5 15.5t83 44t40 62t11.5 76.5q0 51 -15 91t-41.5 65t-61 45.5t-74 33t-80.5 26t-80.5 25t-74 30.5t-61 42.5t-41.5 60.5t-15 85q0 51 17 89.5t46 62t72.5 37.5t89.5 19.5t105 5.5q152 0 244 -23 q17 -4 20 -15.5t-4 -27.5q-1 -15 -6 -19.5t-17 -2.5q-114 24 -226 24q-59 0 -102.5 -6t-81.5 -21.5t-58 -46.5t-20 -76q0 -53 30 -89.5t78 -56t105.5 -36t115.5 -38t106 -53t78 -89.5t30 -140q0 -124 -82.5 -194t-259.5 -70q-116 0 -271 29q-15 1 -19 6t-4 20z" />
<glyph unicode="t" horiz-adv-x="487" d="M41 903v16q0 25 25 25h76v178q0 25 25 25h29q25 0 25 -25v-178h190q24 0 24 -25v-16q0 -12 -5.5 -17.5t-18.5 -5.5h-190v-663q0 -35 6 -61.5t20 -48t39 -32.5t61 -11q55 0 102 14q3 -1 5 0t4 -1.5t3.5 -2.5t2.5 -3.5t1.5 -5t1.5 -5.5t1 -6t1 -6.5t1 -6.5q1 -13 -3 -18 t-16 -7q-57 -16 -111 -16q-104 0 -151 55t-47 162v663h-76q-25 0 -25 23z" />
<glyph unicode="u" horiz-adv-x="961" d="M132 292v627q0 25 25 25h28q25 0 25 -25v-622q0 -116 64 -182.5t196 -66.5q74 0 159 15t123 31v825q0 25 24 25h29q25 0 25 -25v-851q0 -25 -25 -31q-47 -20 -148 -37.5t-189 -17.5q-173 0 -254.5 81.5t-81.5 228.5z" />
<glyph unicode="v" horiz-adv-x="863" d="M85 921q-1 14 4 18.5t18 4.5h30q24 0 27 -25q32 -312 121.5 -550.5t147.5 -293.5q59 56 148 294t119 550q6 25 27 25h30q24 0 21 -23q-18 -182 -59.5 -350.5t-87.5 -278.5t-85 -179.5t-63 -89.5q-20 -23 -38 -23h-23q-23 0 -39 23q-24 23 -62.5 91.5t-86.5 178.5 t-90 278.5t-59 349.5z" />
<glyph unicode="w" horiz-adv-x="1333" d="M84 921q-2 13 2 18t17 5h29q14 0 19.5 -5.5t8.5 -19.5q17 -178 50 -335.5t69 -259t65.5 -163t49.5 -86.5q21 26 50 88.5t65.5 164.5t69 259t48.5 332q4 25 27 25h26q14 0 19 -5.5t8 -19.5q16 -178 48.5 -336.5t69 -259.5t65.5 -162t49 -86q21 27 50 89.5t65.5 164.5 t69.5 258.5t50 331.5q2 12 7 18.5t19 6.5h29q14 0 17.5 -5t3.5 -18q-21 -178 -50.5 -327.5t-57.5 -241.5t-60.5 -165.5t-52.5 -106t-41 -57.5q-18 -23 -35 -23h-27q-13 0 -20 4.5t-14 18.5q-19 21 -47.5 76t-64.5 145.5t-68 231t-48 297.5q-14 -151 -45.5 -289.5 t-66.5 -230.5t-63.5 -149t-48.5 -81q-9 -14 -15.5 -18.5t-18.5 -4.5h-27q-22 0 -35 23q-23 28 -57.5 97.5t-76 180t-77 276t-49.5 344.5z" />
<glyph unicode="x" horiz-adv-x="829" d="M78 21q23 145 98 262.5t155 188.5q-82 73 -156 188t-97 262q-6 22 20 22h34q18 0 26 -22q16 -82 51.5 -158.5t75 -127.5t73.5 -84t55 -44q22 10 56 42t74 82.5t75.5 128t51.5 161.5q9 22 26 22h36q26 0 20 -22q-14 -80 -44.5 -154.5t-69.5 -131t-73 -95.5t-68 -69 q34 -31 69 -71.5t74 -98t69 -131t43 -150.5q3 -13 -2 -17t-20 -4h-28q-22 0 -29 20q-19 87 -55 165.5t-75.5 129t-73 81.5t-56.5 42q-24 -15 -56.5 -46.5t-72.5 -83t-76 -128t-53 -160.5q-7 -20 -29 -20h-26q-14 0 -18.5 4.5t-3.5 16.5z" />
<glyph unicode="y" horiz-adv-x="856" d="M85 921q-2 14 2.5 18.5t19.5 4.5h35q20 0 24 -25q18 -166 57 -323.5t82 -264t79.5 -175t60.5 -92.5q255 396 255 825v30q0 25 25 25h28q13 0 18 -5.5t5 -19.5v-30q0 -184 -39 -350t-118 -318t-173 -282.5t-229 -282.5q-4 -4 -8 -6.5t-8 -2t-7 1t-7.5 3.5t-6 4.5t-6.5 5.5 l-5 5q-13 11 -15 16.5t6 15.5q137 151 241 299q-30 34 -72.5 110t-92.5 191.5t-92 281.5t-59 340z" />
<glyph unicode="z" horiz-adv-x="817" d="M84 25v114q0 64 30.5 120.5t79.5 99.5t108.5 83t118.5 79.5t108 80.5t79.5 95t30.5 115v64h-516q-23 0 -23 25v18q0 25 23 25h572q24 0 24 -25v-114q0 -69 -30.5 -128.5t-79.5 -104t-108 -85.5t-118.5 -79.5t-108.5 -77.5t-79.5 -89.5t-30.5 -106.5v-66h545q25 0 25 -25 v-18q0 -25 -25 -25h-600q-25 0 -25 25z" />
<glyph unicode="{" horiz-adv-x="596" d="M102 550v31q0 12 14 12q39 0 67 10.5t45.5 34.5t28 48.5t15 68t5.5 75t1 87.5v118q0 32 0.5 51.5t4.5 51.5t11 52t21.5 44t34.5 38t51 23.5t71 9.5q21 0 21 -19v-14q0 -24 -19 -24q-67 0 -92.5 -56t-25.5 -170v-114q0 -55 -2 -93t-8.5 -81t-19 -72.5t-34.5 -55.5t-53 -41 q73 -36 95 -117.5t22 -224.5v-114q0 -115 25.5 -171t92.5 -56q19 0 19 -23v-14q0 -20 -21 -20q-40 0 -71 9.5t-51 23.5t-34.5 38.5t-21.5 44.5t-11 52t-4.5 51.5t-0.5 51.5v118q0 47 -0.5 75t-4 67t-9.5 61t-18 48t-29 39.5t-42.5 22.5t-58.5 9q-14 0 -14 14z" />
<glyph unicode="|" horiz-adv-x="284" d="M102 -212v1487q0 25 24 25h32q25 0 25 -25v-1487q0 -25 -25 -25h-32q-24 0 -24 25z" />
<glyph unicode="}" horiz-adv-x="596" d="M102 -141q0 23 19 23q68 0 93.5 56t25.5 171v114q0 142 22 224t94 118q-72 36 -94 118.5t-22 224.5v114q0 114 -25.5 170t-93.5 56q-19 0 -19 24v14q0 19 21 19q40 0 71.5 -9.5t51.5 -23.5t34.5 -38t22 -44.5t11.5 -52t4.5 -51.5t0.5 -51v-118q0 -56 1 -87.5t5.5 -75 t15 -68t28 -48.5t45.5 -34.5t67 -10.5q8 0 12 -11v-35q-4 -11 -12 -11q-33 0 -58.5 -9t-42.5 -22.5t-29 -39.5t-18 -48t-9.5 -61t-4 -67t-0.5 -75v-118q0 -31 -0.5 -51.5t-4.5 -52t-11.5 -52t-22 -44.5t-34.5 -38t-51.5 -23.5t-71.5 -9.5q-21 0 -21 20v14z" />
<glyph unicode="~" horiz-adv-x="895" d="M116 497q31 56 78.5 85t101.5 29q32 0 64 -12.5t58.5 -29.5t53.5 -34.5t60 -30t68 -12.5q85 0 137 74q13 16 27 7l20 -12q19 -11 0 -32q-29 -53 -78.5 -81.5t-108.5 -28.5q-37 0 -72.5 12.5t-63 30t-54 34.5t-57 29.5t-61.5 12.5q-41 0 -68 -18.5t-57 -60.5q-8 -6 -15 -6 t-11 2.5t-15 9.5q-18 11 -7 32z" />
<glyph unicode="&#xa1;" horiz-adv-x="306" d="M128 -308v935q0 25 23 25h31q23 0 23 -25v-935q0 -23 -23 -23h-31q-23 0 -23 23zM128 832v103q0 25 23 25h31q23 0 23 -25v-103q0 -25 -23 -25h-31q-23 0 -23 25z" />
<glyph unicode="&#xa2;" horiz-adv-x="797" d="M98 458v28q0 420 310 469v140q0 25 25 25h32q23 0 23 -25v-133h4q98 0 204 -18q17 -2 19.5 -13t-3.5 -28q-3 -12 -8 -16.5t-15 -3.5q-13 2 -37.5 5t-32 4t-24.5 2.5t-27.5 2t-27.5 1t-38 0.5q-166 0 -243 -105t-77 -307v-32q0 -203 80 -305.5t251 -102.5q90 0 182 16 q6 1 10.5 -1t6 -6.5t2 -7.5t0.5 -6q2 -9 3 -15t-0.5 -11t-6 -8.5t-12.5 -4.5q-113 -20 -198 -20h-12v-155q0 -25 -23 -25h-32q-25 0 -25 25v162q-163 25 -236.5 142t-73.5 327z" />
<glyph unicode="&#xa3;" horiz-adv-x="872" d="M68 25v16q0 23 17 34q111 57 169 151t58 209q0 32 -15 146h-169q-25 0 -25 24v18q0 25 25 25h157q-2 13 -9.5 56t-10.5 62t-7.5 52.5t-6.5 59.5t-2 50v35q0 169 94.5 250.5t260.5 81.5q73 0 201 -23q28 -6 16 -41q-4 -17 -8.5 -21t-20.5 -1q-127 20 -178 20 q-57 0 -99 -11q-186 -44 -186 -255v-35q0 -77 38 -280h258q25 0 25 -25v-18q0 -24 -25 -24h-247q16 -98 16 -157q0 -238 -211 -355h642q23 0 23 -24v-20q0 -25 -23 -25h-732q-25 0 -25 25z" />
<glyph unicode="&#xa4;" horiz-adv-x="778" d="M28 109q-17 17 0 33l70 65v546l-70 66q-18 16 0 34l24 23q10 10 15.5 11t19.5 -9l57 -55q90 35 244 35q166 0 250 -37l60 57q18 18 36 -2l23 -23q10 -10 11 -16t-11 -18l-77 -75v-529l77 -73q20 -16 0 -33l-23 -24q-18 -18 -36 -1l-62 57q-90 -32 -248 -32t-242 30 l-59 -55q-18 -16 -35 1zM182 217q0 -17 69 -29.5t137 -12.5q69 0 138 12.5t69 29.5v538q0 16 -70.5 29.5t-136.5 13.5q-65 0 -135.5 -13.5t-70.5 -29.5v-538z" />
<glyph unicode="&#xa5;" horiz-adv-x="917" d="M52 1261q0 12 3.5 16.5t17.5 4.5h36q23 0 30 -21q22 -138 68.5 -264.5t98.5 -210t95.5 -135.5t72.5 -72q22 15 54.5 49.5t75 97t81 137.5t73.5 180.5t52 217.5q8 21 31 21h33q14 0 19 -5t3 -16q-19 -140 -65.5 -271t-104.5 -224t-105.5 -153t-88.5 -97h280q25 0 25 -24 v-11q0 -25 -25 -25h-294v-143h294q25 0 25 -23v-12q0 -25 -25 -25h-294v-228q0 -25 -25 -25h-39q-23 0 -23 25v228h-315q-25 0 -25 25v12q0 23 25 23h315v143h-313q-25 0 -25 25v11q0 24 25 24h295q-31 28 -66.5 69.5t-82.5 112.5t-87 151t-75 189.5t-50 222.5z" />
<glyph unicode="&#xa6;" horiz-adv-x="352" d="M142 301q0 25 25 25h38q23 0 23 -25v-625q0 -25 -23 -25h-38q-25 0 -25 25v625zM142 695v610q0 25 25 25h38q23 0 23 -25v-610q0 -25 -23 -25h-38q-25 0 -25 25z" />
<glyph unicode="&#xa7;" horiz-adv-x="790" d="M69 -116q3 27 27 22q161 -25 262 -25q67 0 117.5 13.5t78 33t44 47t21 50t4.5 48.5q0 66 -30 112.5t-78 72.5t-105.5 45.5t-115.5 39.5t-106 47t-78 75.5t-30 116.5q0 64 25 107.5t72 66t101 31.5t126 9q32 0 48 -2q-27 10 -80 28t-85.5 31t-72 34t-65.5 50t-40 67 q-18 48 -15 98q4 59 30 99t72 61t99.5 29.5t124.5 8.5q120 0 251 -25q19 -2 22 -13t-4 -28q-1 -10 -2.5 -14t-7.5 -6t-17 1q-128 23 -236 23q-56 0 -97.5 -6t-79.5 -21t-58 -46t-20 -77q0 -48 23.5 -83t61.5 -55t87 -38.5t99.5 -32.5t99.5 -38.5t87 -55t61.5 -83.5 t23.5 -123q0 -182 -194 -237q87 -38 135 -99t48 -166q0 -260 -350 -260q-113 0 -266 28q-19 4 -21.5 12.5t3.5 26.5zM160 586q0 -21 5 -39t11 -32.5t20.5 -28.5t23.5 -23t32 -20.5t33.5 -16.5t39.5 -15.5t38.5 -13.5t42.5 -14q230 19 230 194q0 84 -52 139q-95 19 -169 19 q-57 0 -98.5 -6t-79.5 -21t-57.5 -46t-19.5 -76z" />
<glyph unicode="&#xa8;" horiz-adv-x="708" d="M182 1076v87q0 23 25 23h28q25 0 25 -23v-87q0 -25 -25 -25h-28q-25 0 -25 25zM454 1076v87q0 23 23 23h29q25 0 25 -23v-87q0 -25 -25 -25h-29q-23 0 -23 25z" />
<glyph unicode="&#xa9;" horiz-adv-x="1558" d="M69 632q0 159 53.5 283.5t149.5 203.5t224 120t280 41q153 0 281.5 -41t225 -120t150.5 -203.5t54 -283.5t-54 -284t-150.5 -204t-225 -120.5t-281.5 -41.5q-152 0 -280 41.5t-224 120.5t-149.5 204t-53.5 284zM132 632q0 -148 48 -263t135 -187t203.5 -108.5 t257.5 -36.5t258.5 36.5t205 108.5t136.5 187t49 263q0 147 -49 262t-136.5 187t-205 109t-258.5 37t-257.5 -36.5t-203.5 -108.5t-135 -187t-48 -263zM431 591v31q0 461 376 461q94 0 199 -34q7 -1 11 -4t4.5 -8.5t0 -9.5t-2.5 -14q-5 -19 -23 -16q-103 29 -180 29 q-164 0 -238 -102.5t-74 -301.5v-33q0 -202 75.5 -301t246.5 -99q92 0 178 14q16 0 20 -25t-16 -28q-105 -18 -191 -18q-204 0 -295 115.5t-91 343.5z" />
<glyph unicode="&#xaa;" horiz-adv-x="724" d="M75 782v14q0 89 65 137t186 48q92 0 192 -34v154q0 67 -38 102.5t-127 35.5q-97 0 -202 -23q-9 -2 -13.5 4.5t-7.5 20.5q-3 11 0 14.5t14 5.5q110 25 218 25q113 0 162 -47t49 -138v-451q0 -9 -3 -13t-13 -8q-92 -36 -217 -36q-265 0 -265 189zM135 784q0 -79 53 -114.5 t156 -35.5q102 0 174 28v243q-77 34 -183 34q-200 0 -200 -147v-8z" />
<glyph unicode="&#xab;" horiz-adv-x="721" d="M69 493q-14 19 0 38l280 333q4 5 8 7.5t8 2.5t7 -0.5t8 -3.5t7 -4.5t6.5 -5.5t5.5 -5q18 -17 3 -36l-249 -306l248 -305q6 -8 6 -16t-2 -11.5t-10.5 -11.5t-9.5 -9q-19 -19 -36 2zM321 493q-14 19 0 38l279 333q4 5 8 7.5t8 2.5t7 -0.5t8 -3.5t7 -4.5t6.5 -5.5t5.5 -5 q19 -17 4 -36l-252 -306l250 -305q5 -6 6.5 -11.5t-2 -11t-5 -8.5t-8 -9.5l-7.5 -7.5q-19 -19 -36 2z" />
<glyph unicode="&#xac;" horiz-adv-x="993" d="M2 654v25q0 23 25 23h796q25 0 25 -23v-399q0 -24 -25 -24h-25q-23 0 -23 24v350h-748q-25 0 -25 24z" />
<glyph unicode="&#xad;" horiz-adv-x="660" d="M148 518v20q0 25 25 25h319q23 0 23 -25v-20q0 -25 -23 -25h-319q-25 0 -25 25z" />
<glyph unicode="&#xae;" horiz-adv-x="1556" d="M46 632q0 159 53.5 283.5t149.5 203.5t224 120t280 41q153 0 281.5 -41t225 -120t150.5 -203.5t54 -283.5t-54 -284t-150.5 -204t-225 -120.5t-281.5 -41.5q-152 0 -280 41.5t-224 120.5t-149.5 204t-53.5 284zM109 632q0 -148 48 -263t135 -187t203.5 -108.5 t257.5 -36.5t258.5 36.5t205 108.5t136.5 187t49 263q0 147 -49 262t-136.5 187t-205 109t-258.5 37t-257.5 -36.5t-203.5 -108.5t-135 -187t-48 -263zM513 191v870q0 15 19 18q11 1 54.5 6t85.5 8.5t80 3.5q164 0 239.5 -63.5t75.5 -200.5v-21q0 -112 -58.5 -174 t-183.5 -77q53 -35 103.5 -82t102 -124.5t77.5 -162.5q7 -21 -13 -21h-34q-10 0 -15 4t-10 16q-31 93 -94.5 176.5t-121.5 129t-101 60.5q-51 0 -137 8v-374q0 -20 -19 -20h-31q-19 0 -19 20zM582 618q15 0 75.5 -5.5t95.5 -5.5q125 0 182 50.5t57 156.5v19 q0 108 -57.5 158.5t-181.5 50.5q-77 0 -171 -13v-411z" />
<glyph unicode="&#xaf;" horiz-adv-x="692" d="M148 1076v12q0 25 25 25h351q23 0 23 -25v-12q0 -25 -23 -25h-351q-25 0 -25 25z" />
<glyph unicode="&#xb0;" horiz-adv-x="489" d="M100 1165q0 58 41 87.5t101 29.5q59 0 101 -29.5t42 -87.5t-42 -88t-101 -30q-60 0 -101 30t-41 88zM160 1165q0 -35 25 -56t57 -21q31 0 56.5 21t25.5 56q0 36 -25.5 56t-56.5 20q-33 0 -57.5 -20t-24.5 -56z" />
<glyph unicode="&#xb1;" horiz-adv-x="856" d="M11 -52q0 25 25 25h794q23 0 23 -25v-21q0 -25 -23 -25h-794q-25 0 -25 25v21zM11 488v20q0 23 23 23h360v372q0 25 25 25h19q25 0 25 -25v-372h351q25 0 25 -23v-20q0 -23 -25 -23h-351v-374q0 -25 -25 -25h-19q-25 0 -25 25v374h-360q-23 0 -23 23z" />
<glyph unicode="&#xb2;" horiz-adv-x="888" d="M96 363v121q0 48 31.5 89.5t81.5 73t110.5 61t121 58t110.5 58.5t81.5 68.5t31.5 81.5v112q0 148 -245 148q-68 0 -147.5 -17t-120.5 -35q-9 0 -13 -1.5t-9 4t-6.5 8t-5 10t-5.5 10.5q-7 24 14 30q48 21 133.5 39t162.5 18q324 0 324 -208v-127q0 -52 -31.5 -97 t-81.5 -78t-110.5 -63t-121 -57.5t-110.5 -56t-81.5 -64.5t-31.5 -77v-62h582q25 0 25 -24v-23q0 -25 -25 -25h-639q-25 0 -25 25z" />
<glyph unicode="&#xb3;" horiz-adv-x="801" d="M94 381q2 14 7 18t20 3q150 -14 246 -14q159 0 232.5 51t73.5 158v17q0 72 -34 117.5t-107.5 68.5t-189.5 23h-57q-25 0 -25 25v12q0 25 25 25h46q139 1 202.5 42t63.5 127v16q0 89 -64 129t-200 40q-124 0 -198 -8q-14 -2 -19.5 3t-5.5 18l-1 11q-2 11 2.5 17t8.5 7 t10 1q67 12 223 12q116 0 188.5 -23.5t107.5 -74t35 -132.5v-16q0 -76 -40.5 -123.5t-127.5 -68.5q127 -21 185.5 -81.5t58.5 -166.5v-19q0 -92 -39 -151t-123 -88.5t-217 -29.5q-176 0 -265 16q-17 2 -20.5 10t-1.5 29z" />
<glyph unicode="&#xb4;" horiz-adv-x="288" d="M100 1038l101 178q13 20 38 20h42q12 0 14.5 -7t-5.5 -16l-121 -178q-16 -20 -41 -20h-18q-24 0 -10 23z" />
<glyph unicode="&#xb6;" horiz-adv-x="947" d="M41 930q0 156 100 254t260 98h336q25 0 25 -25v-1456q0 -24 -25 -24h-26q-24 0 -24 24v1415h-183v-1415q0 -24 -25 -24h-27q-25 0 -25 24v778q-174 3 -280 98t-106 253z" />
<glyph unicode="&#xb7;" horiz-adv-x="664" d="M308 461v105q0 23 25 23h32q23 0 23 -23v-105q0 -25 -23 -25h-32q-25 0 -25 25z" />
<glyph unicode="&#xb8;" horiz-adv-x="404" d="M73 -285q4 12 6 13.5t19 -2.5q51 -20 94 -20q98 0 98 87q0 89 -130 89q-4 0 -6 4t1 9l50 94h59l-43 -78q60 2 98.5 -29.5t38.5 -88.5q0 -63 -43.5 -91t-107.5 -28q-35 0 -86.5 11t-47.5 30z" />
<glyph unicode="&#xb9;" horiz-adv-x="372" d="M107 1245v16q0 25 23 25h112q23 0 23 -25v-898q0 -25 -23 -25h-34q-23 0 -23 25v857h-55q-23 0 -23 25z" />
<glyph unicode="&#xba;" horiz-adv-x="721" d="M93 930v21q0 159 70 247t209 88q137 0 207.5 -88t70.5 -247v-21q0 -159 -70.5 -248t-207.5 -89q-139 0 -209 89t-70 248zM151 930q0 -137 55.5 -214.5t165.5 -77.5t164.5 76.5t54.5 215.5v21q0 139 -54.5 213.5t-164.5 74.5q-111 0 -166 -74.5t-55 -213.5v-21z" />
<glyph unicode="&#xbb;" horiz-adv-x="721" d="M69 819q-4 6 -5.5 11t-1.5 8.5t4 9t5.5 7t8.5 7.5l7 5q18 17 34 -3l281 -333q14 -19 0 -38l-281 -331q-8 -10 -16.5 -9.5t-14 5t-15.5 15.5q-18 18 -4 35l248 305zM321 819q-4 5 -6 9.5t-1 8.5t1.5 7t4 7t5.5 5.5t7 5.5t6 5q19 16 34 -3l280 -333q16 -19 0 -38l-280 -331 q-5 -6 -9.5 -8.5t-8.5 -2.5t-9 3t-7.5 5.5l-7 7l-6.5 6.5q-17 16 -2 35l248 305z" />
<glyph unicode="&#xbc;" horiz-adv-x="1821" d="M128 1241v16q0 25 25 25h111q25 0 25 -25v-897q0 -25 -25 -25h-32q-25 0 -25 25v856h-54q-25 0 -25 25zM475 5l492 1272q9 23 36 23h30q12 0 15.5 -5t-1.5 -18l-493 -1272q-6 -23 -34 -23h-30q-24 0 -15 23zM1054 196v126q0 51 31.5 97t81.5 81.5t110 69.5t120.5 68.5 t110.5 70.5t81.5 82.5t31.5 98.5v38q0 23 25 23h33q25 0 25 -23v-45q0 -60 -31 -111.5t-81 -90t-110.5 -73t-121 -67t-110.5 -66t-81 -76t-31 -89.5v-68h474v212q0 25 25 25h39q23 0 23 -25v-212h34q25 0 25 -25v-21q0 -23 -25 -23h-34v-148q0 -25 -23 -25h-39q-25 0 -25 25 v148h-533q-25 0 -25 23z" />
<glyph unicode="&#xbd;" horiz-adv-x="1877" d="M128 1241v18q0 23 25 23h111q25 0 25 -23v-899q0 -25 -25 -25h-32q-25 0 -25 25v858h-54q-25 0 -25 23zM475 5l492 1272q9 23 36 23h30q12 0 15.5 -5t-1.5 -18l-491 -1272q-9 -23 -34 -23h-32q-12 0 -15.5 5t0.5 18zM1113 25v121q0 48 31.5 89.5t81.5 73t110.5 61t121 58 t110.5 58.5t81.5 68.5t31.5 81.5v112q0 148 -247 148q-67 0 -146 -17t-120 -35q-26 -7 -34 18l-7 12q-7 25 16 31q48 21 133 39t161 18q168 0 247 -55t79 -154v-126q0 -52 -31.5 -97t-81.5 -78t-110.5 -63t-121 -57.5t-110.5 -56t-81.5 -64.5t-31.5 -77v-63h582q23 0 23 -23 v-23q0 -25 -23 -25h-639q-25 0 -25 25z" />
<glyph unicode="&#xbe;" horiz-adv-x="2039" d="M119 381q2 14 7 18t20 3q150 -14 246 -14q159 0 232.5 51t73.5 158v17q0 72 -34 117.5t-107.5 68.5t-189.5 23h-57q-25 0 -25 25v12q0 25 25 25h46q139 1 202.5 42t63.5 127v16q0 89 -64 129t-200 40q-124 0 -198 -8q-14 -2 -19.5 3t-5.5 18l-1 11q-2 11 2.5 17t8.5 7 t10 1q67 12 223 12q173 0 252 -54t79 -176v-16q0 -76 -40.5 -123.5t-127.5 -68.5q127 -21 185.5 -81.5t58.5 -166.5v-19q0 -92 -39 -151t-123 -88.5t-217 -29.5q-176 0 -265 16q-17 2 -20.5 10t-1.5 29zM737 5l494 1272q6 23 33 23h32q13 0 16.5 -4.5t-1.5 -18.5l-492 -1272 q-9 -23 -35 -23h-32q-13 0 -16.5 5t1.5 18zM1179 196v126q0 45 24.5 86t64 72.5t90.5 64t104 60t104 60t90.5 64.5t64 73.5t24.5 87.5v38q0 23 25 23h34q25 0 25 -23v-45q0 -53 -24.5 -99.5t-64 -81t-90.5 -68t-104 -60t-104 -57.5t-90.5 -60t-64 -67t-24.5 -80v-68h473v212 q0 25 25 25h38q13 0 19 -5.5t6 -19.5v-212h33q25 0 25 -25v-21q0 -23 -25 -23h-33v-148q0 -25 -25 -25h-38q-25 0 -25 25v148h-532q-25 0 -25 23z" />
<glyph unicode="&#xbf;" horiz-adv-x="975" d="M178 -16q0 52 15 99.5t40 83t57 71t65 63.5t65 60.5t57 63t40 69.5t15 81v123q0 23 25 23h34q23 0 23 -23v-125q0 -55 -19.5 -103.5t-50.5 -86t-68.5 -72.5l-75 -70t-68.5 -71.5t-50.5 -84t-19.5 -101.5v-34q0 -113 67 -176.5t211 -63.5q72 0 154 17.5t145 39.5 q17 5 23.5 -2.5t12.5 -26.5q1 -2 1 -3q4 -13 1.5 -20t-15.5 -12q-54 -22 -149.5 -40.5t-178.5 -18.5q-181 0 -268.5 80.5t-87.5 223.5v36zM534 816v103q0 25 23 25h40q25 0 25 -25v-103q0 -25 -25 -25h-40q-23 0 -23 25z" />
<glyph unicode="&#xc0;" horiz-adv-x="1016" d="M85 23q16 209 54.5 404t82.5 331.5t93 248t85 170.5t59 82q16 23 40 23h21q18 0 39 -21q23 -21 59 -78.5t84 -167.5t91.5 -246.5t82 -334t55.5 -411.5q2 -13 -2.5 -18t-18.5 -5h-36q-22 0 -25 23q-18 188 -51 376h-581q-33 -178 -50 -376q-3 -23 -25 -23h-35 q-13 0 -17.5 5t-4.5 18zM232 468h553q-59 284 -141.5 483.5t-134.5 254.5q-52 -53 -135.5 -253.5t-141.5 -484.5zM340 1516q-7 12 -4.5 14.5t13.5 2.5h41q25 0 37 -19l113 -168q15 -19 -9 -19h-25q-24 0 -41 18z" />
<glyph unicode="&#xc1;" horiz-adv-x="1016" d="M85 23q16 209 54.5 404t82.5 331.5t93 248t85 170.5t59 82q16 23 40 23h21q18 0 39 -21q23 -21 59 -78.5t84 -167.5t91.5 -246.5t82 -334t55.5 -411.5q2 -13 -2.5 -18t-18.5 -5h-36q-22 0 -25 23q-18 188 -51 376h-581q-33 -178 -50 -376q-3 -23 -25 -23h-35 q-13 0 -17.5 5t-4.5 18zM232 468h553q-59 284 -141.5 483.5t-134.5 254.5q-52 -53 -135.5 -253.5t-141.5 -484.5zM475 1350l102 178q13 20 37 20h43q12 0 14.5 -7.5t-5.5 -16.5l-121 -178q-15 -19 -41 -19h-18q-25 0 -11 23z" />
<glyph unicode="&#xc2;" horiz-adv-x="1016" d="M85 23q16 209 54.5 404t82.5 331.5t93 248t85 170.5t59 82q16 23 40 23h21q18 0 39 -21q23 -21 59 -78.5t84 -167.5t91.5 -246.5t82 -334t55.5 -411.5q2 -13 -2.5 -18t-18.5 -5h-36q-22 0 -25 23q-18 188 -51 376h-581q-33 -178 -50 -376q-3 -23 -25 -23h-35 q-13 0 -17.5 5t-4.5 18zM232 468h553q-59 284 -141.5 483.5t-134.5 254.5q-52 -53 -135.5 -253.5t-141.5 -484.5zM308 1325q-8 11 9 20l169 138q23 10 43 0l169 -138q15 -8 4 -27q-6 -11 -25 -4l-169 114l-173 -115q-5 -3 -10.5 -1.5t-6.5 2t-4.5 5t-5.5 6.5z" />
<glyph unicode="&#xc3;" horiz-adv-x="1016" d="M85 23q16 209 54.5 404t82.5 331.5t93 248t85 170.5t59 82q16 23 40 23h21q18 0 39 -21q23 -21 59 -78.5t84 -167.5t91.5 -246.5t82 -334t55.5 -411.5q2 -13 -2.5 -18t-18.5 -5h-36q-22 0 -25 23q-18 188 -51 376h-581q-33 -178 -50 -376q-3 -23 -25 -23h-35 q-13 0 -17.5 5t-4.5 18zM232 468h553q-59 284 -141.5 483.5t-134.5 254.5q-52 -53 -135.5 -253.5t-141.5 -484.5zM319 1375q44 73 117 73q28 0 53 -11t40 -24.5t35 -24.5t40 -11q45 0 66 32q7 12 17 7q2 0 6 -1l6 -1.5t5 -1.5t4.5 -2.5t2.5 -3.5t0.5 -4.5t-2.5 -5.5 q-10 -19 -23.5 -33.5t-28 -22t-28.5 -11.5t-29 -4q-26 0 -50 11.5t-40 25t-37.5 25t-43.5 11.5q-12 0 -24.5 -3.5t-24.5 -11.5t-20 -19q-7 -11 -20 -5q-24 4 -24 10q0 3 3 6z" />
<glyph unicode="&#xc4;" horiz-adv-x="1016" d="M85 23q16 209 54.5 404t82.5 331.5t93 248t85 170.5t59 82q16 23 40 23h21q18 0 39 -21q23 -21 59 -78.5t84 -167.5t91.5 -246.5t82 -334t55.5 -411.5q2 -13 -2.5 -18t-18.5 -5h-36q-22 0 -25 23q-18 188 -51 376h-581q-33 -178 -50 -376q-3 -23 -25 -23h-35 q-13 0 -17.5 5t-4.5 18zM232 468h553q-59 284 -141.5 483.5t-134.5 254.5q-52 -53 -135.5 -253.5t-141.5 -484.5zM335 1352v87q0 23 25 23h28q25 0 25 -23v-87q0 -25 -25 -25h-28q-25 0 -25 25zM607 1352v87q0 23 23 23h29q25 0 25 -23v-87q0 -25 -25 -25h-29q-23 0 -23 25z " />
<glyph unicode="&#xc5;" horiz-adv-x="1016" d="M85 23q16 209 54.5 404t82.5 331.5t93 248t85 170.5t59 82q2 0 2 4q-42 10 -68 38t-26 74q0 58 41 87.5t101 29.5q59 0 101 -29.5t42 -87.5q0 -45 -26.5 -73.5t-68.5 -38.5q0 -2 2 -2q24 -22 60.5 -81t84.5 -170t91.5 -247.5t81 -332.5t54.5 -407q2 -13 -2.5 -18 t-18.5 -5h-36q-22 0 -25 23q-18 188 -51 376h-581q-33 -178 -50 -376q-3 -23 -25 -23h-35q-13 0 -17.5 5t-4.5 18zM232 468h553q-59 284 -141.5 483.5t-134.5 254.5q-52 -53 -135.5 -253.5t-141.5 -484.5zM427 1375q0 -35 25 -56t57 -21q31 0 56.5 21t25.5 56q0 36 -25.5 56 t-56.5 20q-32 0 -57 -20t-25 -56z" />
<glyph unicode="&#xc6;" horiz-adv-x="1654" d="M85 23q16 209 54.5 404t82.5 331.5t93 248t85 170.5t59 82q10 14 18.5 18.5t21.5 4.5h21q12 0 19.5 -4.5t19.5 -16.5q22 -20 54.5 -73t73.5 -139t86 -220.5t80 -288.5q61 125 249 162q-83 18 -136.5 55t-78.5 91t-25 128v21q0 162 99 232.5t318 70.5q123 0 288 -14 q19 -2 22 -15t-2 -24q-3 -25 -25 -22q-117 11 -267 11q-182 0 -262 -55t-80 -185v-22q0 -123 89.5 -182t287.5 -62h95q23 0 23 -23v-16q0 -23 -23 -23h-109q-214 0 -309 -72t-95 -227v-25q0 -157 86.5 -226.5t287.5 -69.5q118 0 292 20q27 3 27 -27v-11q0 -13 -5 -19t-17 -9 q-151 -20 -310 -20q-237 0 -345 87l3 -46q2 -13 -2.5 -18t-18.5 -5h-36q-22 0 -25 23q-18 188 -51 376h-581q-33 -178 -50 -376q-3 -23 -25 -23h-35q-13 0 -17.5 5t-4.5 18zM232 468h553q-31 150 -72.5 285t-80 225t-70 147.5t-53.5 80.5q-22 -22 -54 -79.5t-71 -147.5 t-80 -225.5t-72 -285.5z" />
<glyph unicode="&#xc7;" horiz-adv-x="958" d="M84 620v42q0 156 28.5 272t89 199t160 125t238.5 42q114 0 251 -30q27 -5 22 -27q-1 -3 -2.5 -8t-2 -8t-2 -7.5t-3 -6.5t-3.5 -5t-4.5 -3.5t-6.5 -1.5t-8 1q-111 27 -228 27q-100 0 -175.5 -25.5t-126 -72t-82 -118t-45 -157.5t-13.5 -196v-44q0 -138 23 -240 t73.5 -176.5t136 -112t207.5 -37.5q123 0 235 23q23 5 27 -23q3 -21 0.5 -31t-18.5 -14q-51 -11 -112.5 -17t-122.5 -8l-34 -62q60 2 98.5 -29.5t38.5 -88.5q0 -33 -12.5 -57t-35 -37t-48 -19t-55.5 -6q-18 0 -48 3.5t-59.5 14t-26.5 23.5q1 1 1 4q3 9 6.5 10.5t17.5 -3.5 q51 -20 94 -20q98 0 98 87q0 89 -130 89q-4 0 -6 4t1 9l41 80q-251 10 -364 170t-113 466z" />
<glyph unicode="&#xc8;" horiz-adv-x="872" d="M52 342v27q0 143 67 224.5t214 108.5q-124 27 -182 95t-58 179v21q0 162 98.5 232.5t317.5 70.5q124 0 289 -14q19 -2 21.5 -15t-2.5 -24q-3 -25 -25 -22q-117 11 -267 11q-182 0 -262 -55t-80 -185v-22q0 -123 90 -182t288 -62h94q24 0 24 -23v-16q0 -23 -24 -23h-108 q-214 0 -309.5 -72t-95.5 -227v-25q0 -157 86.5 -226.5t287.5 -69.5q119 0 293 20q26 3 26 -27v-11q0 -23 -21 -28q-151 -20 -310 -20q-239 0 -345.5 86.5t-106.5 273.5zM340 1555q-14 18 9 18h41q24 0 37 -20l113 -167q16 -20 -9 -20h-25q-24 0 -41 18z" />
<glyph unicode="&#xc9;" horiz-adv-x="872" d="M52 342v27q0 143 67 224.5t214 108.5q-124 27 -182 95t-58 179v21q0 162 98.5 232.5t317.5 70.5q124 0 289 -14q19 -2 21.5 -15t-2.5 -24q-3 -25 -25 -22q-117 11 -267 11q-182 0 -262 -55t-80 -185v-22q0 -123 90 -182t288 -62h94q24 0 24 -23v-16q0 -23 -24 -23h-108 q-214 0 -309.5 -72t-95.5 -227v-25q0 -157 86.5 -226.5t287.5 -69.5q119 0 293 20q26 3 26 -27v-11q0 -23 -21 -28q-151 -20 -310 -20q-239 0 -345.5 86.5t-106.5 273.5zM475 1389l102 178q13 20 37 20h43q12 0 14.5 -7t-5.5 -16l-121 -178q-16 -20 -41 -20h-18 q-25 0 -11 23z" />
<glyph unicode="&#xca;" horiz-adv-x="872" d="M52 342v27q0 143 67 224.5t214 108.5q-124 27 -182 95t-58 179v21q0 162 98.5 232.5t317.5 70.5q124 0 289 -14q19 -2 21.5 -15t-2.5 -24q-3 -25 -25 -22q-117 11 -267 11q-182 0 -262 -55t-80 -185v-22q0 -123 90 -182t288 -62h94q24 0 24 -23v-16q0 -23 -24 -23h-108 q-214 0 -309.5 -72t-95.5 -227v-25q0 -157 86.5 -226.5t287.5 -69.5q119 0 293 20q26 3 26 -27v-11q0 -23 -21 -28q-151 -20 -310 -20q-239 0 -345.5 86.5t-106.5 273.5zM308 1364q-8 11 9 20l169 139q23 10 43 0l169 -139q15 -8 4 -27q-6 -11 -25 -4l-169 114l-173 -115 q-5 -3 -10.5 -1.5t-6.5 2t-4.5 5t-5.5 6.5z" />
<glyph unicode="&#xcb;" horiz-adv-x="872" d="M52 342v27q0 143 67 224.5t214 108.5q-124 27 -182 95t-58 179v21q0 162 98.5 232.5t317.5 70.5q124 0 289 -14q19 -2 21.5 -15t-2.5 -24q-3 -25 -25 -22q-117 11 -267 11q-182 0 -262 -55t-80 -185v-22q0 -123 90 -182t288 -62h94q24 0 24 -23v-16q0 -23 -24 -23h-108 q-214 0 -309.5 -72t-95.5 -227v-25q0 -157 86.5 -226.5t287.5 -69.5q119 0 293 20q26 3 26 -27v-11q0 -23 -21 -28q-151 -20 -310 -20q-239 0 -345.5 86.5t-106.5 273.5zM335 1391v87q0 23 25 23h28q25 0 25 -23v-87q0 -25 -25 -25h-28q-25 0 -25 25zM607 1391v87 q0 23 23 23h29q25 0 25 -23v-87q0 -25 -25 -25h-29q-23 0 -23 25z" />
<glyph unicode="&#xcc;" horiz-adv-x="379" d="M23 1555q-7 12 -4.5 15t13.5 3h41q24 0 37 -20l113 -167q16 -20 -9 -20h-25q-25 0 -41 18zM148 25v1232q0 25 25 25h34q25 0 25 -25v-1232q0 -25 -25 -25h-34q-25 0 -25 25z" />
<glyph unicode="&#xcd;" horiz-adv-x="379" d="M148 25v1232q0 25 25 25h34q25 0 25 -25v-1232q0 -25 -25 -25h-34q-25 0 -25 25zM157 1389l101 178q13 20 38 20h42q12 0 14.5 -7t-5.5 -16l-121 -178q-16 -20 -41 -20h-18q-24 0 -10 23z" />
<glyph unicode="&#xce;" horiz-adv-x="379" d="M-11 1364q-8 11 9 20l169 139q23 10 43 0l169 -139q15 -8 4 -27q-6 -11 -25 -4l-169 114l-173 -115q-11 0 -12.5 -1t-7 5t-7.5 8zM148 25v1232q0 25 25 25h34q25 0 25 -25v-1232q0 -25 -25 -25h-34q-25 0 -25 25z" />
<glyph unicode="&#xcf;" horiz-adv-x="379" d="M11 1394v88q0 23 25 23h28q25 0 25 -23v-88q0 -25 -25 -25h-28q-25 0 -25 25zM148 25v1232q0 25 25 25h34q25 0 25 -25v-1232q0 -25 -25 -25h-34q-25 0 -25 25zM283 1394v88q0 23 23 23h29q25 0 25 -23v-88q0 -25 -25 -25h-29q-23 0 -23 25z" />
<glyph unicode="&#xd0;" horiz-adv-x="1148" d="M4 618v21q0 25 24 25h130v575q0 23 25 29q217 32 319 32q294 0 428.5 -154.5t134.5 -479.5v-43q0 -315 -136.5 -470t-431.5 -155q-167 0 -314 30q-25 6 -25 27v540h-130q-24 0 -24 23zM242 91q125 -25 260 -25q247 0 359.5 136t112.5 421v43q0 292 -111.5 428.5 t-358.5 136.5q-137 0 -262 -25v-542h121q25 0 25 -25v-21q0 -23 -25 -23h-121v-504z" />
<glyph unicode="&#xd1;" horiz-adv-x="1136" d="M148 25v1136q0 23 23 30q67 40 186.5 74.5t226.5 34.5q187 0 278 -98.5t91 -271.5v-905q0 -25 -25 -25h-36q-23 0 -23 25v901q0 305 -292 305q-85 0 -192.5 -29.5t-152.5 -59.5v-1117q0 -25 -25 -25h-34q-25 0 -25 25zM402 1414q44 73 118 73q28 0 53 -11t39.5 -24.5 t34.5 -24.5t40 -11q45 0 66 32q8 12 18 7q2 -1 6 -1.5t6 -1t5 -1.5t4 -2.5l2 -3t0.5 -4.5t-2.5 -6q-38 -71 -108 -71q-26 0 -50 11.5t-40 25t-37.5 25t-43.5 11.5q-19 0 -39 -9t-31 -25q-7 -11 -19 -5q-24 6 -24 11q-1 2 2 5z" />
<glyph unicode="&#xd2;" d="M84 623v43q0 302 125.5 468t378.5 166q250 0 377 -166.5t127 -467.5v-43q0 -302 -127.5 -471.5t-376.5 -169.5q-252 0 -378 169t-126 472zM169 623q0 -272 105.5 -422.5t313.5 -150.5q206 0 311 151t105 422v43q0 275 -104.5 420.5t-311.5 145.5q-209 0 -314 -145.5 t-105 -420.5v-43zM419 1555q-14 18 8 18h41q25 0 38 -20l112 -167q16 -20 -9 -20h-25q-24 0 -41 18z" />
<glyph unicode="&#xd3;" d="M84 623v43q0 302 125.5 468t378.5 166q250 0 377 -166.5t127 -467.5v-43q0 -302 -127.5 -471.5t-376.5 -169.5q-252 0 -378 169t-126 472zM169 623q0 -272 105.5 -422.5t313.5 -150.5q206 0 311 151t105 422v43q0 275 -104.5 420.5t-311.5 145.5q-209 0 -314 -145.5 t-105 -420.5v-43zM552 1389l102 178q13 20 37 20h43q12 0 14.5 -7t-5.5 -16l-121 -178q-16 -20 -41 -20h-18q-25 0 -11 23z" />
<glyph unicode="&#xd4;" d="M84 623v43q0 302 125.5 468t378.5 166q250 0 377 -166.5t127 -467.5v-43q0 -302 -127.5 -471.5t-376.5 -169.5q-252 0 -378 169t-126 472zM169 623q0 -272 105.5 -422.5t313.5 -150.5q206 0 311 151t105 422v43q0 275 -104.5 420.5t-311.5 145.5q-209 0 -314 -145.5 t-105 -420.5v-43zM386 1364q-8 11 9 20l170 139q22 10 42 0l169 -139q18 -10 4 -27q-6 -11 -25 -4l-169 114l-173 -115q-11 0 -12.5 -1t-7 5t-7.5 8z" />
<glyph unicode="&#xd5;" d="M84 623v43q0 302 125.5 468t378.5 166q250 0 377 -166.5t127 -467.5v-43q0 -302 -127.5 -471.5t-376.5 -169.5q-252 0 -378 169t-126 472zM169 623q0 -272 105.5 -422.5t313.5 -150.5q206 0 311 151t105 422v43q0 275 -104.5 420.5t-311.5 145.5q-209 0 -314 -145.5 t-105 -420.5v-43zM395 1414q44 73 118 73q28 0 53 -11t39.5 -24.5t34.5 -24.5t40 -11q45 0 66 32q8 12 18 7q2 -1 6 -1.5t6 -1t5 -1.5t4 -2.5l2 -3t0.5 -4.5t-2.5 -6q-38 -71 -108 -71q-26 0 -50 11.5t-40 25t-37.5 25t-43.5 11.5q-19 0 -39 -9t-31 -25q-7 -11 -19 -5 q-24 6 -24 11q-1 2 2 5z" />
<glyph unicode="&#xd6;" d="M84 623v43q0 302 125.5 468t378.5 166q250 0 377 -166.5t127 -467.5v-43q0 -302 -127.5 -471.5t-376.5 -169.5q-252 0 -378 169t-126 472zM169 623q0 -272 105.5 -422.5t313.5 -150.5q206 0 311 151t105 422v43q0 275 -104.5 420.5t-311.5 145.5q-209 0 -314 -145.5 t-105 -420.5v-43zM413 1391v87q0 23 25 23h29q25 0 25 -23v-87q0 -25 -25 -25h-29q-25 0 -25 25zM686 1391v87q0 23 23 23h28q25 0 25 -23v-87q0 -25 -25 -25h-28q-23 0 -23 25z" />
<glyph unicode="&#xd7;" horiz-adv-x="1004" d="M130 141l329 333l-325 335q-8 8 -8 15.5t2.5 10.5t10.5 13q11 11 17.5 11t16.5 -10l329 -333l330 333q10 7 18 6.5t10.5 -2.5t13.5 -11q19 -14 0 -33l-329 -335l326 -332q6 -6 8.5 -11t1 -9.5t-3 -7.5t-6 -7.5t-5.5 -6.5q-18 -16 -34 0l-330 333l-329 -333q-21 -21 -41 7 q-19 17 -2 34z" />
<glyph unicode="&#xd8;" d="M84 623v43q0 302 125.5 468t378.5 166q106 0 188 -30l9 25q6 23 34 23h30q12 0 15.5 -5t-0.5 -18l-22 -57q124 -70 187 -216.5t63 -355.5v-43q0 -302 -127.5 -471.5t-376.5 -169.5q-108 0 -191 30l-9 -26q-6 -23 -34 -23h-28q-12 0 -16 5t0 18l21 57q-247 143 -247 580z M175 623q0 -372 183 -505l394 1082q-74 31 -164 31q-413 0 -413 -565v-43zM422 82q69 -30 166 -30q206 0 309.5 149.5t103.5 421.5v43q0 373 -185 499z" />
<glyph unicode="&#xd9;" horiz-adv-x="1111" d="M148 402v855q0 25 25 25h32q25 0 25 -25v-851q0 -167 79 -260.5t248 -93.5q78 0 177.5 12t147.5 23v1170q0 25 24 25h33q24 0 24 -25v-1196q0 -14 -5 -20.5t-19 -10.5q-66 -18 -176.5 -33t-208.5 -15q-209 0 -307.5 110.5t-98.5 309.5zM381 1555q-7 12 -4.5 15t13.5 3h41 q24 0 37 -20l113 -167q16 -20 -9 -20h-25q-25 0 -41 18z" />
<glyph unicode="&#xda;" horiz-adv-x="1111" d="M148 402v855q0 25 25 25h32q25 0 25 -25v-851q0 -167 79 -260.5t248 -93.5q78 0 177.5 12t147.5 23v1170q0 25 24 25h33q24 0 24 -25v-1196q0 -14 -5 -20.5t-19 -10.5q-66 -18 -176.5 -33t-208.5 -15q-209 0 -307.5 110.5t-98.5 309.5zM515 1389l101 178q13 20 38 20h42 q12 0 14.5 -7t-5.5 -16l-121 -178q-16 -20 -41 -20h-18q-24 0 -10 23z" />
<glyph unicode="&#xdb;" horiz-adv-x="1111" d="M148 402v855q0 25 25 25h32q25 0 25 -25v-851q0 -167 79 -260.5t248 -93.5q78 0 177.5 12t147.5 23v1170q0 25 24 25h33q24 0 24 -25v-1196q0 -14 -5 -20.5t-19 -10.5q-66 -18 -176.5 -33t-208.5 -15q-209 0 -307.5 110.5t-98.5 309.5zM363 1364q-8 11 9 20l169 139 q23 10 43 0l169 -139q15 -8 4 -27q-6 -11 -25 -4l-169 114l-173 -115q-11 0 -12.5 -1t-7 5t-7.5 8z" />
<glyph unicode="&#xdc;" horiz-adv-x="1111" d="M148 402v855q0 25 25 25h32q25 0 25 -25v-851q0 -167 79 -260.5t248 -93.5q78 0 177.5 12t147.5 23v1170q0 25 24 25h33q24 0 24 -25v-1196q0 -14 -5 -20.5t-19 -10.5q-66 -18 -176.5 -33t-208.5 -15q-209 0 -307.5 110.5t-98.5 309.5zM376 1391v87q0 23 25 23h28 q25 0 25 -23v-87q0 -25 -25 -25h-28q-25 0 -25 25zM648 1391v87q0 23 23 23h29q25 0 25 -23v-87q0 -25 -25 -25h-29q-23 0 -23 25z" />
<glyph unicode="&#xdd;" horiz-adv-x="947" d="M52 1261q0 11 4.5 16t18.5 5h32q27 0 30 -21q18 -112 52.5 -218t73.5 -182t81.5 -139t75 -98t54.5 -49q29 19 73.5 73t98 138.5t100 211.5t66.5 263q4 21 30 21h31q15 0 20 -5t3 -16q-16 -120 -54 -235t-81.5 -197.5t-93 -154t-86 -111t-63.5 -61.5v-477q0 -25 -25 -25 h-39q-23 0 -23 25v477q-72 58 -153.5 177.5t-147.5 280.5t-78 301zM438 1389l102 178q13 20 37 20h43q12 0 14.5 -7t-5.5 -16l-121 -178q-16 -20 -41 -20h-18q-25 0 -11 23z" />
<glyph unicode="&#xde;" horiz-adv-x="983" d="M148 25v1232q0 25 25 25h34q25 0 25 -25v-199q138 18 235 18q240 0 349.5 -100.5t109.5 -318.5v-28q0 -210 -112 -312t-353 -102q-101 0 -229 13v-203q0 -25 -25 -25h-34q-25 0 -25 25zM232 297q114 -16 235 -16q193 0 281.5 84.5t88.5 263.5v28q0 181 -88.5 266 t-280.5 85q-136 0 -236 -14v-697z" />
<glyph unicode="&#xdf;" horiz-adv-x="1107" d="M151 25v962q0 31 5 58t16 52.5t28 46t42 37.5t58 28.5t76 18t94 6.5q154 0 224 -50.5t70 -136.5q0 -49 -23 -82.5t-58.5 -48t-82.5 -17.5q-17 -1 -26.5 -1.5t-27.5 -3.5t-29.5 -8t-26 -14.5t-23 -23t-14.5 -35t-6 -47.5q0 -48 18.5 -83.5t50 -58t72 -40t85.5 -31.5 t90.5 -29.5t86 -38t72 -53t50 -79t18.5 -111.5q0 -260 -349 -260q-106 0 -267 29q-18 4 -20.5 14.5t2.5 24.5q1 15 7 19.5t20 1.5q160 -26 263 -26q67 0 117 13.5t77.5 33t44.5 47.5t22 51.5t5 49.5q0 66 -30 112t-78 71t-106 43.5t-116.5 39t-106.5 49.5t-78 82t-30 129 q0 53 15.5 91t35.5 57.5t51.5 31t50.5 13.5t45 3q122 7 122 90q0 60 -59 89t-160 29q-238 0 -238 -166v-979q0 -25 -23 -25h-31q-25 0 -25 25z" />
<glyph unicode="&#xe0;" horiz-adv-x="915" d="M75 249v20q0 126 92 194t264 68q126 0 272 -47v216q0 95 -54 146.5t-181 51.5q-143 0 -285 -32q-5 -4 -10 -1t-7 2.5t-4.5 5t-3 7.5t-2.5 9t-3 10q-3 14 1 20t19 9q151 34 308 34q161 0 231 -66t70 -194v-638q0 -14 -4 -19.5t-19 -10.5q-129 -52 -307 -52q-68 0 -123 8 t-103 27t-81 49t-51.5 76.5t-18.5 106.5zM160 251q0 -111 75 -160.5t221 -49.5q136 0 247 39v344q-35 17 -106 32.5t-154 15.5q-283 0 -283 -207v-14zM312 1304q-7 12 -4.5 14.5t13.5 2.5h41q25 0 37 -19l112 -168q15 -19 -9 -19h-25q-25 0 -41 18z" />
<glyph unicode="&#xe1;" horiz-adv-x="915" d="M75 249v20q0 126 92 194t264 68q126 0 272 -47v216q0 95 -54 146.5t-181 51.5q-143 0 -285 -32q-5 -4 -10 -1t-7 2.5t-4.5 5t-3 7.5t-2.5 9t-3 10q-3 14 1 20t19 9q151 34 308 34q161 0 231 -66t70 -194v-638q0 -14 -4 -19.5t-19 -10.5q-129 -52 -307 -52q-68 0 -123 8 t-103 27t-81 49t-51.5 76.5t-18.5 106.5zM160 251q0 -111 75 -160.5t221 -49.5q136 0 247 39v344q-35 17 -106 32.5t-154 15.5q-283 0 -283 -207v-14zM445 1138l102 178q13 20 37 20h43q12 0 14.5 -7t-5.5 -16l-121 -179q-15 -19 -41 -19h-18q-25 0 -11 23z" />
<glyph unicode="&#xe2;" horiz-adv-x="915" d="M75 249v20q0 126 92 194t264 68q126 0 272 -47v216q0 95 -54 146.5t-181 51.5q-143 0 -285 -32q-5 -4 -10 -1t-7 2.5t-4.5 5t-3 7.5t-2.5 9t-3 10q-3 14 1 20t19 9q151 34 308 34q161 0 231 -66t70 -194v-638q0 -14 -4 -19.5t-19 -10.5q-129 -52 -307 -52q-68 0 -123 8 t-103 27t-81 49t-51.5 76.5t-18.5 106.5zM160 251q0 -111 75 -160.5t221 -49.5q136 0 247 39v344q-35 17 -106 32.5t-154 15.5q-283 0 -283 -207v-14zM280 1113q-8 11 9 20l169 139q22 10 42 0l170 -139q17 -9 3 -27q-6 -11 -25 -4l-169 114l-173 -115q-5 -2 -8.5 -2t-6 1.5 t-3.5 3t-3.5 4.5t-4.5 5z" />
<glyph unicode="&#xe3;" horiz-adv-x="915" d="M75 249v20q0 126 92 194t264 68q126 0 272 -47v216q0 95 -54 146.5t-181 51.5q-143 0 -285 -32q-5 -4 -10 -1t-7 2.5t-4.5 5t-3 7.5t-2.5 9t-3 10q-3 14 1 20t19 9q151 34 308 34q161 0 231 -66t70 -194v-638q0 -14 -4 -19.5t-19 -10.5q-129 -52 -307 -52q-68 0 -123 8 t-103 27t-81 49t-51.5 76.5t-18.5 106.5zM160 251q0 -111 75 -160.5t221 -49.5q136 0 247 39v344q-35 17 -106 32.5t-154 15.5q-283 0 -283 -207v-14zM290 1163q44 73 118 73q36 0 64.5 -18t53 -35.5t49.5 -17.5q45 0 66 32q8 12 18 7q2 -1 6 -1.5t6 -1t5 -1.5t4 -2.5l2 -3 t0.5 -4.5t-2.5 -6q-38 -71 -108 -71q-33 0 -62 18.5t-55.5 36.5t-53.5 18q-46 0 -70 -34q-7 -11 -19 -5q-25 5 -25 11q0 2 3 5z" />
<glyph unicode="&#xe4;" horiz-adv-x="915" d="M75 249v20q0 126 92 194t264 68q126 0 272 -47v216q0 95 -54 146.5t-181 51.5q-143 0 -285 -32q-5 -4 -10 -1t-7 2.5t-4.5 5t-3 7.5t-2.5 9t-3 10q-3 14 1 20t19 9q151 34 308 34q161 0 231 -66t70 -194v-638q0 -14 -4 -19.5t-19 -10.5q-129 -52 -307 -52q-68 0 -123 8 t-103 27t-81 49t-51.5 76.5t-18.5 106.5zM160 251q0 -111 75 -160.5t221 -49.5q136 0 247 39v344q-35 17 -106 32.5t-154 15.5q-283 0 -283 -207v-14zM308 1140v87q0 23 25 23h29q24 0 24 -23v-87q0 -25 -24 -25h-29q-25 0 -25 25zM581 1140v87q0 23 23 23h28q25 0 25 -23 v-87q0 -25 -25 -25h-28q-23 0 -23 25z" />
<glyph unicode="&#xe5;" horiz-adv-x="915" d="M75 249v20q0 126 92 194t264 68q126 0 272 -47v216q0 95 -54 146.5t-181 51.5q-143 0 -285 -32q-5 -4 -10 -1t-7 2.5t-4.5 5t-3 7.5t-2.5 9t-3 10q-3 14 1 20t19 9q151 34 308 34q161 0 231 -66t70 -194v-638q0 -14 -4 -19.5t-19 -10.5q-129 -52 -307 -52q-68 0 -123 8 t-103 27t-81 49t-51.5 76.5t-18.5 106.5zM160 251q0 -111 75 -160.5t221 -49.5q136 0 247 39v344q-35 17 -106 32.5t-154 15.5q-283 0 -283 -207v-14zM322 1223q0 58 41.5 88t101.5 30q59 0 100.5 -30t41.5 -88t-41.5 -87.5t-100.5 -29.5q-60 0 -101.5 29.5t-41.5 87.5z M383 1223q0 -35 25 -55.5t57 -20.5q31 0 56.5 20.5t25.5 55.5q0 36 -25.5 56.5t-56.5 20.5q-32 0 -57 -20.5t-25 -56.5z" />
<glyph unicode="&#xe6;" horiz-adv-x="1535" d="M75 249v20q0 126 92 194t264 68q126 0 272 -47v216q0 95 -54 146.5t-181 51.5q-143 0 -285 -32q-5 -4 -10 -1t-7 2.5t-4.5 5t-3 7.5t-2.5 9t-3 10q-3 14 1 20t19 9q151 34 308 34q240 0 288 -162q91 162 307 162q69 0 124 -17.5t90.5 -41.5t61.5 -66.5t39.5 -75.5 t22 -86.5t10.5 -81.5t4 -77l2 -23q0 -25 -25 -25h-616v-10q0 -218 83 -315t264 -97q116 0 266 29q13 3 17.5 -1t6.5 -15q5 -13 6 -20.5t-3.5 -14.5t-16.5 -10q-130 -32 -283 -32q-250 0 -347 146v-64q0 -14 -4 -19.5t-19 -10.5q-129 -52 -307 -52q-68 0 -123 8t-103 27 t-81 49t-51.5 76.5t-18.5 106.5zM160 251q0 -111 75 -160.5t221 -49.5q136 0 247 39v344q-35 17 -106 32.5t-154 15.5q-283 0 -283 -207v-14zM789 527h564q-3 183 -69 277t-208 94q-145 0 -213.5 -93t-73.5 -278z" />
<glyph unicode="&#xe7;" horiz-adv-x="797" d="M98 458v28q0 476 394 476q98 0 204 -18q17 -2 19.5 -13t-3.5 -28q-3 -12 -8 -16.5t-15 -3.5q-13 2 -37.5 5t-32 4t-24.5 2.5t-27.5 2t-27.5 1t-38 0.5q-166 0 -243 -105t-77 -307v-32q0 -203 80 -305.5t251 -102.5q90 0 182 16q8 2 12.5 -3t5.5 -9.5t1 -8.5 q3 -13 3.5 -19.5t-4 -12t-15.5 -7.5q-113 -20 -198 -20h-10l-32 -59q60 2 98.5 -29t38.5 -88q0 -33 -13 -57t-35.5 -37t-48 -19t-55.5 -6q-13 0 -34 2t-45 6.5t-40 13t-14 19.5q3 12 6 13.5t19 -3.5q49 -19 94 -19q98 0 98 87q0 89 -130 89q-4 0 -6 3.5t1 8.5l41 79 q-175 18 -255 136.5t-80 335.5z" />
<glyph unicode="&#xe8;" horiz-adv-x="926" d="M98 458v32q0 472 370 472q54 0 99.5 -10.5t78.5 -26.5t60 -43.5t44 -51.5t30.5 -61.5t20 -64t11.5 -67.5t6 -62.5t3 -58.5l2 -23q0 -25 -25 -25h-616v-10q0 -218 83 -315t264 -97q115 0 265 29q22 5 25 -16q5 -13 6 -20.5t-3.5 -14.5t-16.5 -10q-130 -32 -283 -32 q-219 0 -321.5 114t-102.5 362zM182 527h564q-3 183 -69.5 277t-208.5 94q-145 0 -213 -93t-73 -278zM297 1304q-7 12 -4.5 14.5t13.5 2.5h41q26 0 38 -19l112 -168q15 -19 -9 -19h-25q-25 0 -41 18z" />
<glyph unicode="&#xe9;" horiz-adv-x="926" d="M98 458v32q0 472 370 472q183 0 269 -115.5t86 -340.5v-13q0 -25 -25 -25h-616v-10q0 -218 83 -315t264 -97q115 0 265 29q22 5 25 -16q5 -13 6 -20.5t-3.5 -14.5t-16.5 -10q-130 -32 -283 -32q-219 0 -321.5 114t-102.5 362zM182 527h564q-3 183 -69.5 277t-208.5 94 q-145 0 -213 -93t-73 -278zM431 1138l101 178q13 20 38 20h43q12 0 14.5 -7t-5.5 -16l-122 -179q-15 -19 -41 -19h-17q-25 0 -11 23z" />
<glyph unicode="&#xea;" horiz-adv-x="926" d="M98 458v32q0 472 370 472q183 0 269 -115.5t86 -340.5v-13q0 -25 -25 -25h-616v-10q0 -218 83 -315t264 -97q115 0 265 29q22 5 25 -16q5 -13 6 -20.5t-3.5 -14.5t-16.5 -10q-130 -32 -283 -32q-219 0 -321.5 114t-102.5 362zM182 527h564q-3 183 -69.5 277t-208.5 94 q-145 0 -213 -93t-73 -278zM265 1113q-8 11 9 20l169 139q23 10 43 0l169 -139q15 -8 4 -27q-6 -11 -25 -4l-169 114l-173 -115q-11 0 -12.5 -1t-7 5t-7.5 8z" />
<glyph unicode="&#xeb;" horiz-adv-x="926" d="M98 458v32q0 472 370 472q183 0 269 -115.5t86 -340.5v-13q0 -25 -25 -25h-616v-10q0 -218 83 -315t264 -97q115 0 265 29q22 5 25 -16q5 -13 6 -20.5t-3.5 -14.5t-16.5 -10q-130 -32 -283 -32q-219 0 -321.5 114t-102.5 362zM182 527h564q-3 183 -69.5 277t-208.5 94 q-145 0 -213 -93t-73 -278zM292 1140v87q0 23 25 23h28q25 0 25 -23v-87q0 -25 -25 -25h-28q-25 0 -25 25zM565 1140v87q0 23 23 23h28q25 0 25 -23v-87q0 -25 -25 -25h-28q-23 0 -23 25z" />
<glyph unicode="&#xec;" horiz-adv-x="381" d="M0 1304q-7 12 -4.5 14.5t13.5 2.5h41q25 0 37 -19l112 -168q15 -19 -8 -19h-25q-24 0 -41 18zM135 178v741q0 25 23 25h31q25 0 25 -25v-739q0 -60 18.5 -88t61.5 -28q29 0 76 13q13 4 16 -15l6 -21q5 -17 -13 -23q-52 -18 -99 -18q-72 0 -108.5 40.5t-36.5 137.5z" />
<glyph unicode="&#xed;" horiz-adv-x="381" d="M135 178v741q0 25 23 25h31q25 0 25 -25v-739q0 -60 18.5 -88t61.5 -28q29 0 76 13q13 4 16 -15l6 -21q5 -17 -13 -23q-52 -18 -99 -18q-72 0 -108.5 40.5t-36.5 137.5zM135 1138l102 178q13 20 37 20h43q12 0 14.5 -7t-5.5 -16l-121 -179q-15 -19 -41 -19h-18 q-25 0 -11 23z" />
<glyph unicode="&#xee;" horiz-adv-x="381" d="M-32 1113q-8 11 9 20l169 139q23 10 43 0l169 -139q15 -8 4 -27q-6 -11 -25 -4l-170 114l-172 -115q-5 -3 -10.5 -1.5t-6.5 2t-4.5 5t-5.5 6.5zM135 178v741q0 25 23 25h31q25 0 25 -25v-739q0 -60 18.5 -88t61.5 -28q29 0 76 13q13 4 16 -15l6 -21q3 -11 0.5 -15 t-13.5 -8q-52 -18 -99 -18q-72 0 -108.5 40.5t-36.5 137.5z" />
<glyph unicode="&#xef;" horiz-adv-x="381" d="M-5 1140v87q0 23 25 23h28q25 0 25 -23v-87q0 -25 -25 -25h-28q-25 0 -25 25zM135 178v741q0 25 23 25h31q25 0 25 -25v-739q0 -60 18.5 -88t61.5 -28q29 0 76 13q13 4 16 -15l6 -21q5 -17 -13 -23q-52 -18 -99 -18q-72 0 -108.5 40.5t-36.5 137.5zM267 1140v87 q0 23 23 23h29q25 0 25 -23v-87q0 -25 -25 -25h-29q-23 0 -23 25z" />
<glyph unicode="&#xf0;" horiz-adv-x="988" d="M100 402v29q0 197 95.5 307.5t281.5 110.5q213 0 321 -146q-40 165 -157 287t-290 192l-66 -119q-10 -23 -30 -12l-18 10q-18 6 -5 29l62 112q-36 13 -107 30q-2 1 -5.5 2t-5 1.5t-4 1.5t-3.5 2t-3 2.5t-2 2.5t-1 3t-0.5 4.5t0.5 5.5t1 7q4 21 11 28.5t26 2.5 q121 -35 125 -36l55 100q2 7 5.5 10.5t9.5 3t9.5 -1.5t11 -5t9.5 -5q12 -5 13.5 -11t-4.5 -18l-54 -94q240 -94 373 -270.5t133 -436.5v-129q0 -197 -99 -308.5t-293 -111.5t-294.5 111.5t-100.5 308.5zM187 404q0 -170 77.5 -264t230.5 -94t229.5 94.5t76.5 263.5v27 q0 170 -76 262t-230 92q-153 0 -230.5 -92.5t-77.5 -261.5v-27z" />
<glyph unicode="&#xf1;" horiz-adv-x="965" d="M132 25v824q0 25 25 38q58 29 159.5 52t196.5 23q163 0 241.5 -85.5t78.5 -237.5v-614q0 -25 -24 -25h-31q-23 0 -23 25v607q0 124 -59.5 194t-186.5 70q-74 0 -165 -21.5t-134 -42.5v-807q0 -25 -23 -25h-30q-25 0 -25 25zM283 1163q44 73 118 73q36 0 64.5 -18 t53 -35.5t49.5 -17.5q45 0 66 32q8 12 18 7q2 -1 6 -1.5t6 -1t5 -1.5t4 -2.5l2 -3t0.5 -4.5t-2.5 -6q-38 -71 -108 -71q-41 0 -90 36.5t-81 36.5q-46 0 -70 -34q-7 -11 -19 -5q-25 5 -25 11q0 2 3 5z" />
<glyph unicode="&#xf2;" horiz-adv-x="986" d="M98 458v32q0 223 99.5 347.5t295.5 124.5t296 -124.5t100 -347.5v-32q0 -223 -100 -349.5t-296 -126.5t-295.5 126.5t-99.5 349.5zM182 458q0 -194 78 -303t233 -109t233.5 108.5t78.5 303.5v32q0 196 -78 302t-234 106t-233.5 -106t-77.5 -302v-32zM322 1304 q-7 12 -4.5 14.5t13.5 2.5h41q26 0 38 -19l112 -168q15 -19 -9 -19h-25q-24 0 -41 18z" />
<glyph unicode="&#xf3;" horiz-adv-x="986" d="M98 458v32q0 223 99.5 347.5t295.5 124.5t296 -124.5t100 -347.5v-32q0 -223 -100 -349.5t-296 -126.5t-295.5 126.5t-99.5 349.5zM182 458q0 -194 78 -303t233 -109t233.5 108.5t78.5 303.5v32q0 196 -78 302t-234 106t-233.5 -106t-77.5 -302v-32zM458 1138l101 178 q13 20 38 20h42q12 0 14.5 -7t-5.5 -16l-121 -179q-15 -19 -41 -19h-18q-24 0 -10 23z" />
<glyph unicode="&#xf4;" horiz-adv-x="986" d="M98 458v32q0 223 99.5 347.5t295.5 124.5t296 -124.5t100 -347.5v-32q0 -223 -100 -349.5t-296 -126.5t-295.5 126.5t-99.5 349.5zM182 458q0 -194 78 -303t233 -109t233.5 108.5t78.5 303.5v32q0 196 -78 302t-234 106t-233.5 -106t-77.5 -302v-32zM290 1113q-8 11 9 20 l169 139q23 10 43 0l169 -139q15 -8 4 -27q-6 -11 -25 -4l-169 114l-173 -115q-11 0 -12.5 -1t-7 5t-7.5 8z" />
<glyph unicode="&#xf5;" horiz-adv-x="986" d="M98 458v32q0 223 99.5 347.5t295.5 124.5t296 -124.5t100 -347.5v-32q0 -223 -100 -349.5t-296 -126.5t-295.5 126.5t-99.5 349.5zM182 458q0 -194 78 -303t233 -109t233.5 108.5t78.5 303.5v32q0 196 -78 302t-234 106t-233.5 -106t-77.5 -302v-32zM301 1163 q44 73 118 73q28 0 53 -11t39.5 -24.5t34.5 -24.5t40 -11q45 0 66 32q8 12 18 7q2 -1 6 -1.5t6 -1t5 -1.5t4 -2.5l2 -3t0.5 -4.5t-2.5 -6q-10 -19 -23.5 -33.5t-28 -22t-28.5 -11.5t-29 -4q-26 0 -50 11.5t-40 25t-37.5 25t-43.5 11.5q-12 0 -24.5 -3.5t-24.5 -11.5t-20 -19 q-7 -11 -20 -5q-24 4 -24 10q0 3 3 6z" />
<glyph unicode="&#xf6;" horiz-adv-x="986" d="M98 458v32q0 223 99.5 347.5t295.5 124.5t296 -124.5t100 -347.5v-32q0 -223 -100 -349.5t-296 -126.5t-295.5 126.5t-99.5 349.5zM182 458q0 -194 78 -303t233 -109t233.5 108.5t78.5 303.5v32q0 196 -78 302t-234 106t-233.5 -106t-77.5 -302v-32zM317 1140v87 q0 23 25 23h28q25 0 25 -23v-87q0 -25 -25 -25h-28q-25 0 -25 25zM589 1140v87q0 23 24 23h28q25 0 25 -23v-87q0 -25 -25 -25h-28q-24 0 -24 25z" />
<glyph unicode="&#xf7;" horiz-adv-x="651" d="M46 477v22q0 25 25 25h515q25 0 25 -25v-22q0 -25 -25 -25h-515q-25 0 -25 25zM290 25v103q0 25 25 25h32q23 0 23 -25v-103q0 -25 -23 -25h-32q-25 0 -25 25zM290 846v105q0 25 25 25h32q23 0 23 -25v-105q0 -25 -23 -25h-32q-25 0 -25 25z" />
<glyph unicode="&#xf8;" horiz-adv-x="990" d="M100 458v32q0 223 99.5 349t295.5 126q66 0 130 -18l93 241q9 23 35 23h9q13 0 16.5 -4.5t-0.5 -18.5l-99 -260q105 -50 158 -163t53 -275v-32q0 -223 -99.5 -349.5t-295.5 -126.5q-97 0 -169 30l-98 -254q-7 -23 -34 -23h-9q-13 0 -16.5 5.5t0.5 17.5l107 281 q-176 111 -176 419zM183 458q0 -247 122 -348l297 775q-47 16 -107 16q-156 0 -234 -107.5t-78 -303.5v-32zM351 78q62 -32 144 -32q155 0 233.5 108.5t78.5 303.5v32q0 281 -153 372z" />
<glyph unicode="&#xf9;" horiz-adv-x="959" d="M130 292v627q0 25 25 25h28q25 0 25 -25v-622q0 -116 64 -182.5t196 -66.5q74 0 159 15t123 31v825q0 25 25 25h28q25 0 25 -25v-851q0 -25 -25 -31q-48 -20 -148 -37.5t-188 -17.5q-173 0 -255 81.5t-82 228.5zM305 1304q-7 12 -5 14.5t13 2.5h41q26 0 38 -19l112 -168 q15 -19 -9 -19h-25q-24 0 -41 18z" />
<glyph unicode="&#xfa;" horiz-adv-x="959" d="M130 292v627q0 25 25 25h28q25 0 25 -25v-622q0 -116 64 -182.5t196 -66.5q74 0 159 15t123 31v825q0 25 25 25h28q25 0 25 -25v-851q0 -25 -25 -31q-48 -20 -148 -37.5t-188 -17.5q-173 0 -255 81.5t-82 228.5zM438 1138l102 178q13 20 37 20h43q12 0 14.5 -7t-5.5 -16 l-121 -179q-15 -19 -41 -19h-18q-25 0 -11 23z" />
<glyph unicode="&#xfb;" horiz-adv-x="959" d="M130 292v627q0 25 25 25h28q25 0 25 -25v-622q0 -116 64 -182.5t196 -66.5q74 0 159 15t123 31v825q0 25 25 25h28q25 0 25 -25v-851q0 -25 -25 -31q-48 -20 -148 -37.5t-188 -17.5q-173 0 -255 81.5t-82 228.5zM294 1113q-8 11 9 20l169 139q23 10 43 0l169 -139 q17 -9 3 -27q-6 -11 -25 -4l-169 114l-172 -115q-5 -3 -10.5 -1.5t-6.5 2t-4.5 5t-5.5 6.5z" />
<glyph unicode="&#xfc;" horiz-adv-x="959" d="M130 292v627q0 25 25 25h28q25 0 25 -25v-622q0 -116 64 -182.5t196 -66.5q74 0 159 15t123 31v825q0 25 25 25h28q25 0 25 -25v-851q0 -25 -25 -31q-48 -20 -148 -37.5t-188 -17.5q-173 0 -255 81.5t-82 228.5zM313 1140v87q0 23 25 23h29q25 0 25 -23v-87 q0 -25 -25 -25h-29q-25 0 -25 25zM586 1140v87q0 23 23 23h29q24 0 24 -23v-87q0 -25 -24 -25h-29q-23 0 -23 25z" />
<glyph unicode="&#xfd;" horiz-adv-x="876" d="M107 921q-2 14 2 18.5t19 4.5h36q9 0 14 -3.5t6.5 -8.5t2.5 -13q18 -166 57 -323.5t82.5 -264t80 -175t60.5 -92.5q254 395 254 825v30q0 13 6 19t19 6h29q13 0 18 -5.5t5 -19.5v-30q0 -148 -27 -286.5t-73.5 -256.5t-119.5 -240t-152.5 -225.5t-186.5 -224.5 q-7 -7 -13.5 -9t-14.5 3t-10 7l-10 10q-13 11 -15 16.5t6 15.5q132 146 240 299q-30 34 -72.5 110t-92 191.5t-91.5 281.5t-59 340zM420 1138l102 178q13 20 37 20h43q12 0 14.5 -7t-5.5 -16l-121 -179q-15 -19 -41 -19h-18q-13 0 -16 4.5t5 18.5z" />
<glyph unicode="&#xfe;" horiz-adv-x="972" d="M132 -358v1660q0 25 25 25h30q23 0 23 -25v-440q135 100 283 100q190 0 285 -120t95 -333v-76q0 -209 -98.5 -330t-282.5 -121q-150 0 -282 100v-440q0 -25 -23 -25h-30q-25 0 -25 25zM210 148q35 -35 105.5 -65t158.5 -30q153 0 233 100.5t80 282.5v70q0 188 -79.5 287 t-230.5 99q-159 0 -267 -98v-646z" />
<glyph unicode="&#xff;" horiz-adv-x="876" d="M107 921q-2 14 2 18.5t19 4.5h36q9 0 14 -3.5t6.5 -8.5t2.5 -13q18 -166 57 -323.5t82.5 -264t80 -175t60.5 -92.5q254 395 254 825v30q0 13 6 19t19 6h29q13 0 18 -5.5t5 -19.5v-30q0 -148 -27 -286.5t-73.5 -256.5t-119.5 -240t-152.5 -225.5t-186.5 -224.5 q-7 -7 -13.5 -9t-14.5 3t-10 7l-10 10q-13 11 -15 16.5t6 15.5q132 146 240 299q-30 34 -72.5 110t-92 191.5t-91.5 281.5t-59 340zM281 1140v87q0 23 25 23h29q25 0 25 -23v-87q0 -25 -25 -25h-29q-25 0 -25 25zM554 1140v87q0 23 23 23h28q25 0 25 -23v-87q0 -25 -25 -25 h-28q-23 0 -23 25z" />
<glyph unicode="&#x152;" horiz-adv-x="1820" d="M84 623v43q0 302 125.5 468t378.5 166q319 0 440 -276q8 147 107 211.5t309 64.5q124 0 289 -14q19 -2 21.5 -15t-2.5 -24q-3 -25 -25 -22q-117 11 -267 11q-182 0 -262 -55t-80 -185v-22q0 -123 90 -182t288 -62h94q23 0 23 -23v-16q0 -23 -23 -23h-108q-215 0 -310 -72 t-95 -227v-25q0 -157 86.5 -226.5t287.5 -69.5q118 0 292 20q27 3 27 -27v-11q0 -23 -21 -28q-151 -20 -310 -20q-193 0 -298.5 55.5t-137.5 172.5q-128 -228 -415 -228q-252 0 -378 169t-126 472zM169 623q0 -272 105.5 -422.5t313.5 -150.5q206 0 311 151t105 422v43 q0 275 -104.5 420.5t-311.5 145.5q-209 0 -314 -145.5t-105 -420.5v-43zM1085 798q7 -72 7 -132v-37q66 53 176 73q-124 27 -183 96z" />
<glyph unicode="&#x153;" horiz-adv-x="1640" d="M100 458v32q0 223 99.5 347.5t295.5 124.5q131 0 220 -58.5t133 -166.5q80 225 334 225q54 0 99.5 -10.5t78.5 -26.5t60 -43.5t44 -51.5t30.5 -61.5t20 -64t11.5 -67.5t6 -62.5t3 -58.5l2 -23q0 -25 -25 -25h-616v-10q0 -218 83 -315t264 -97q115 0 265 29q22 5 25 -16 q5 -13 6 -20.5t-3.5 -14.5t-16.5 -10q-130 -32 -283 -32q-154 0 -249 54.5t-139 171.5q-44 -109 -133 -167.5t-220 -58.5q-196 0 -295.5 126.5t-99.5 349.5zM183 458q0 -194 78.5 -303t233.5 -109t233.5 108.5t78.5 303.5v32q0 196 -78 302t-234 106t-234 -106t-78 -302v-32 zM896 527h564q-3 183 -69.5 277t-208.5 94q-145 0 -213 -93t-73 -278z" />
<glyph unicode="&#x178;" horiz-adv-x="947" d="M52 1261q0 11 4.5 16t18.5 5h32q27 0 30 -21q18 -112 52.5 -218t73.5 -182t81.5 -139t75 -98t54.5 -49q29 19 73.5 73t98 138.5t100 211.5t66.5 263q4 21 30 21h31q15 0 20 -5t3 -16q-16 -120 -54 -235t-81.5 -197.5t-93 -154t-86 -111t-63.5 -61.5v-477q0 -25 -25 -25 h-39q-23 0 -23 25v477q-72 58 -153.5 177.5t-147.5 280.5t-78 301zM299 1391v87q0 23 25 23h29q25 0 25 -23v-87q0 -25 -25 -25h-29q-25 0 -25 25zM572 1391v87q0 23 23 23h28q25 0 25 -23v-87q0 -25 -25 -25h-28q-23 0 -23 25z" />
<glyph unicode="&#x2c6;" horiz-adv-x="578" d="M82 1049q-8 11 9 20l169 138q23 10 43 0l169 -138q17 -9 3 -27q-6 -11 -24 -4l-170 114l-172 -116q-5 -3 -10 -1.5t-6.5 2.5t-5 5.5t-5.5 6.5z" />
<glyph unicode="&#x2dc;" horiz-adv-x="503" d="M66 1097q44 73 117 73q28 0 53 -11t40 -24.5t35 -24.5t40 -11q45 0 66 32q8 12 18 7q2 -1 6 -1.5t6 -1t5 -1.5t4 -2.5l2 -3t0.5 -4.5t-2.5 -6q-20 -37 -49 -54t-60 -17q-26 0 -50 11.5t-40 25t-37.5 25t-43.5 11.5q-19 0 -38.5 -9t-30.5 -25q-7 -11 -20 -5q-1 0 -4 1 t-5.5 1.5t-5.5 1.5t-4.5 2t-3 2.5t-1 3.5t2.5 4z" />
<glyph unicode="&#x2000;" horiz-adv-x="793" />
<glyph unicode="&#x2001;" horiz-adv-x="1587" />
<glyph unicode="&#x2002;" horiz-adv-x="793" />
<glyph unicode="&#x2003;" horiz-adv-x="1587" />
<glyph unicode="&#x2004;" horiz-adv-x="529" />
<glyph unicode="&#x2005;" horiz-adv-x="396" />
<glyph unicode="&#x2006;" horiz-adv-x="264" />
<glyph unicode="&#x2007;" horiz-adv-x="264" />
<glyph unicode="&#x2008;" horiz-adv-x="198" />
<glyph unicode="&#x2009;" horiz-adv-x="317" />
<glyph unicode="&#x200a;" horiz-adv-x="88" />
<glyph unicode="&#x2010;" horiz-adv-x="660" d="M148 518v20q0 25 25 25h319q23 0 23 -25v-20q0 -25 -23 -25h-319q-25 0 -25 25z" />
<glyph unicode="&#x2011;" horiz-adv-x="660" d="M148 518v20q0 25 25 25h319q23 0 23 -25v-20q0 -25 -23 -25h-319q-25 0 -25 25z" />
<glyph unicode="&#x2012;" horiz-adv-x="660" d="M148 518v20q0 25 25 25h319q23 0 23 -25v-20q0 -25 -23 -25h-319q-25 0 -25 25z" />
<glyph unicode="&#x2013;" horiz-adv-x="1061" d="M148 518v20q0 25 25 25h717q25 0 25 -25v-20q0 -25 -25 -25h-717q-25 0 -25 25z" />
<glyph unicode="&#x2014;" horiz-adv-x="1576" d="M148 518v20q0 25 25 25h1230q25 0 25 -25v-20q0 -25 -25 -25h-1230q-25 0 -25 25z" />
<glyph unicode="&#x2018;" horiz-adv-x="256" d="M50 965l87 294q7 23 32 23h16q26 0 20 -25l-70 -292q-6 -23 -28 -23h-39q-14 0 -18 5t0 18z" />
<glyph unicode="&#x2019;" horiz-adv-x="256" d="M48 965l68 292q7 25 30 25h39q25 0 18 -23l-87 -294q-6 -23 -32 -23h-16q-27 0 -20 23z" />
<glyph unicode="&#x201a;" horiz-adv-x="242" d="M59 -164l69 292q6 25 29 25h41q23 0 16 -23l-88 -294q-6 -23 -32 -23h-16q-25 0 -19 23z" />
<glyph unicode="&#x201c;" horiz-adv-x="463" d="M50 965l87 294q7 23 32 23h16q26 0 20 -23l-70 -294q-6 -23 -28 -23h-39q-25 0 -18 23zM230 965l85 294q10 23 32 23h18q25 0 18 -23l-68 -294q-6 -23 -30 -23h-39q-26 0 -16 23z" />
<glyph unicode="&#x201d;" horiz-adv-x="441" d="M48 965l68 294q7 23 30 23h39q25 0 18 -23l-87 -294q-7 -23 -32 -23h-16q-27 0 -20 23zM226 965l70 294q6 23 28 23h41q23 0 16 -23l-87 -294q-7 -23 -30 -23h-18q-26 0 -20 23z" />
<glyph unicode="&#x201e;" horiz-adv-x="633" d="M59 -164l69 292q6 25 29 25h41q23 0 16 -23l-88 -294q-6 -23 -32 -23h-16q-25 0 -19 23zM333 -164l69 292q6 25 29 25h41q23 0 16 -23l-87 -294q-6 -23 -32 -23h-16q-26 0 -20 23z" />
<glyph unicode="&#x2022;" horiz-adv-x="577" d="M148 280v415q0 24 25 24h235q25 0 25 -24v-415q0 -24 -25 -24h-235q-25 0 -25 24z" />
<glyph unicode="&#x2026;" horiz-adv-x="995" d="M123 25v103q0 25 25 25h37q25 0 25 -25v-103q0 -25 -25 -25h-37q-25 0 -25 25zM454 25v103q0 25 23 25h39q25 0 25 -25v-103q0 -25 -25 -25h-39q-23 0 -23 25zM784 25v103q0 25 25 25h39q23 0 23 -25v-103q0 -25 -23 -25h-39q-25 0 -25 25z" />
<glyph unicode="&#x202f;" horiz-adv-x="317" />
<glyph unicode="&#x2039;" horiz-adv-x="486" d="M69 493q-14 19 0 38l280 333q4 5 8 7.5t8 2.5t7 -0.5t8 -3.5t7 -4.5t6.5 -5.5t5.5 -5q18 -17 3 -36l-249 -306l248 -305q6 -8 6 -16t-2 -11.5t-10.5 -11.5t-9.5 -9q-19 -19 -36 2z" />
<glyph unicode="&#x203a;" horiz-adv-x="484" d="M84 819q-3 4 -5 8.5t-2.5 7.5t1 6.5t3 6t5 5.5t5 4.5t6 5t5.5 4.5q18 16 33 -3l280 -333q16 -19 0 -38l-280 -331q-5 -7 -10.5 -9.5t-11 0t-9 4.5t-9.5 8l-8 8q-17 16 -2 35l248 305z" />
<glyph unicode="&#x205f;" horiz-adv-x="396" />
<glyph unicode="&#x20ac;" horiz-adv-x="1191" d="M87 477q6 25 29 25h197q-3 54 -3 116h-207q-18 0 -19.5 10.5t3.5 23.5q6 25 29 25h194q3 309 125 466t390 157q126 0 251 -30q18 -4 20.5 -16t-4.5 -29q-3 -15 -8.5 -19.5t-20.5 -1.5q-130 27 -226 27q-122 0 -206.5 -35t-135 -107t-73 -172t-23.5 -240h288q17 0 19 -11 t-3 -25q-3 -13 -9.5 -18t-20.5 -5h-274q0 -62 3 -116h285q17 0 19 -10.5t-3 -24.5q-6 -24 -30 -24h-265q28 -198 129.5 -294.5t297.5 -96.5q108 0 234 23q8 0 13 -1.5t8 -6.5t4 -8t2.5 -12.5t2.5 -12.5q3 -9 0 -15t-7 -8t-13 -4q-143 -25 -256 -25q-231 0 -352.5 116.5 t-149.5 344.5h-218q-17 0 -19 10.5t3 23.5z" />
<glyph unicode="&#x2122;" horiz-adv-x="1609" d="M7 1248v15q0 23 23 23h508q23 0 23 -23v-15q0 -21 -23 -21h-214v-684q0 -13 -5.5 -18t-17.5 -5h-32q-12 0 -17.5 5t-5.5 18v684h-216q-23 0 -23 21zM622 543v668q0 17 21 27q46 24 116.5 43t136.5 19q144 0 206 -57q123 57 251 57q121 0 181 -60.5t60 -165.5v-531 q0 -23 -25 -23h-29q-12 0 -17.5 5t-5.5 18v540q0 72 -41.5 113.5t-129.5 41.5q-49 0 -109 -15t-92 -30v-655l-2 -4v-3q-3 -7 -7 -7q-1 -2 -2 -2q-3 -1 -3 -2h-52l-7 4l-3 3q0 1 -1 4t-1 5v609q-4 42 -48 67.5t-129 25.5q-48 0 -108 -16t-84 -32v-647q0 -23 -21 -23h-32 q-13 0 -18 5t-5 18z" />
</font>
</defs>
</svg>
